.
Авторизация | Регистрация

bitok.xyz

» » Сверхъестественное / Supernatural (2019) WEB-DLRip (сезон 15, серии 1 из 20) NewStudio & NovaFilm (обновляемая) торрент скачать бесплатно


    Сверхъестественное / Supernatural (2019) WEB-DLRip (сезон 15, серии 1 из 20) NewStudio & NovaFilm (обновляемая) торрент скачать бесплатно

    Дата: 26-10-2019, 05:00 | .torrent скачали: 0

    Сверхъестественное / Supernatural (2019) WEB-DLRip (сезон 15, серии 1 из 20) NewStudio & NovaFilm (обновляемая)Производство: США/Kripke Enterprises, Supernatural Films, Warner Bros. Television, Wonderland Sound and Vision
    Жанр: ужасы, фэнтези, триллер, драма, детектив
    Режиссер: Роберт Сингер, Дженсен Эклс, Джон Шоуолтер

    Актеры
    Джаред Падалеки, Дженсен Эклс, Александр Калверт, Миша Коллинз, Джейк Абель, Джованна Хьюджет, Дэвид Хайдн-Джонс, Крис Ноуленд, Рут Коннелл и др.

    Описание

    Сериал рассказывает о приключениях братьев Сэма и Дина Винчестеров, которые путешествуют по Соединённым Штатам на чёрном автомобиле Chevrolet Impala 1967 года, расследуют паранормальные явления, многие из которых основаны на американских городских легендах и фольклоре, и сражаются с порождениями зла, такими как демоны и призраки.

    Возраст: 16+ (зрителям, достигшим 16 лет)
    Релиз от: winchester00100010
    Продолжительность: ~00: 43: 00 серия
    Качество видео: WEB-DLRip
    Перевод: Многоголосый профессиональный (NewStudio NovaFilm с голосами дубляжа)
    Субтитры: отсутствуют
    Реклама: Без рекламы
    Видео: Xvid, 720х400, ~1859 kbps
    Аудио 1: AC3, 6 ch, 384 kbps - многоголосый закадровый (NewStudio NovaFilm с голосами дубляжа)
    Аудио 2: AC3, 6 ch, 384 kbps - английский
    Общее
    Полное имя : D: МОИ РАЗДАЧИ ФИЛЬМЫ И СЕРИАЛЫSupernatural.S15.2019.WEB-DLRipSupernatural.S15E01.Back.and.to.the.Future.WEB-DLRip.avi
    Формат : AVI
    Формат/Информация : Audio Video Interleave
    Размер файла : 781 Мбайт
    Продолжительность : 41 м. 20 с.
    Общий поток : 2640 Кбит/сек
    Программа кодирования : VirtualDubMod 1.5.10.2 (build 2542/release)
    Библиотека кодирования : VirtualDubMod build 2542/release
    Видео
    Идентификатор : 0
    Формат : MPEG-4 Visual
    Профиль формата : Advanced Simple@L5
    Настройки формата : BVOP1/Custom Matrix
    Параметр BVOP формата : 1
    Параметр QPel формата : Нет
    Параметр GMC формата : Без точки перехода
    Параметр матрицы формата : Выборочная
    Идентификатор кодека : XVID
    Идентификатор кодека/Подсказка : XviD
    Продолжительность : 41 м. 20 с.
    Битрейт : 1859 Кбит/сек
    Ширина : 720 пикселей
    Высота : 400 пикселей
    Соотношение сторон : 16: 9
    Частота кадров : 23, 976 (24000/1001) кадра/сек
    Цветовое пространство : YUV
    Субдискретизация насыщенности : 4: 2: 0
    Битовая глубина : 8 бит
    Тип развёртки : Прогрессивная
    Метод сжатия : С потерями
    Бит/(Пиксели*Кадры) : 0.269
    Размер потока : 550 Мбайт (70%)
    Библиотека кодирования : XviD 67
    Аудио #1
    Идентификатор : 1
    Формат : AC-3
    Формат/Информация : Audio Coding 3
    Коммерческое название : Dolby Digital
    Идентификатор кодека : 2000
    Продолжительность : 41 м. 20 с.
    Вид битрейта : Постоянный
    Битрейт : 384 Кбит/сек
    Каналы : 6 каналов
    ChannelLayout : L R C LFE Ls Rs
    Частота : 48, 0 КГц
    Частота кадров : 31, 250 кадров/сек (1536 SPF)
    Метод сжатия : С потерями
    Размер потока : 114 Мбайт (15%)
    Выравнивание : Разделение по промежуткам
    Продолжительность промежутка : 42 мс. (1, 00 видеокадр)
    Время предзагрузки промежутка : 500 мс.
    ServiceKind/String : Complete Main
    Аудио #2
    Идентификатор : 2
    Формат : AC-3
    Формат/Информация : Audio Coding 3
    Коммерческое название : Dolby Digital
    Идентификатор кодека : 2000
    Продолжительность : 41 м. 20 с.
    Вид битрейта : Постоянный
    Битрейт : 384 Кбит/сек
    Каналы : 6 каналов
    ChannelLayout : L R C LFE Ls Rs
    Частота : 48, 0 КГц
    Частота кадров : 31, 250 кадров/сек (1536 SPF)
    Метод сжатия : С потерями
    Размер потока : 114 Мбайт (15%)
    Выравнивание : Разделение по промежуткам
    Продолжительность промежутка : 42 мс. (1, 00 видеокадр)
    Время предзагрузки промежутка : 500 мс.
    ServiceKind/String : Complete Main


    Онлайн видео Сверхъестественное



    Сверхъестественное/Supernatural (2019) WEB-DLRip (сезон 15, серии 1 из 20) NewStudio & NovaFilm (обновляемая)
    Рейтинг →
     (голосов: 1, оценка 4/5, голосовать можно 1 раз )

    Другие торренты по теме:

  • Сверхъестественное / Supernatural (2014) WEB-DLRip [720p] (сезон 10, серии 1 из ) LostFilm (oбновляемая)
  • Сверхъестественное / Supernatural (2014-2015) WEB-DLRip [H.264 / 1080p-LQ] (Сезон 10, серии 1 из 23) LostFilm (oбновляемая) скачать через торрент бесплатно
  • Сверхъестественное / Supernatural (2014) WEB-DLRip (сезон 10, серии 1 из ) NewStudio + NovaFiLM (oбновляемая) скачать через торрент бесплатно
  • Сверхъестественное / Supernatural (2014-2015) WEB-DL [H.264 / 1080p-LQ] (Сезон 10, серии 1 из 23) LostFilm (Обновляемая)
  • Сверхъестественное / Supernatural (2014) HDTVRip (Сезон 10, 1-2 серия из 23) [DreamRecords] (Обновляемая)
  • Сверхъестественное / Supernatural (2014) WEB-DLRip (сезон 10, серии 1-2 из ) BaibaKo (oбновляемая) скачать через торрент бесплатно
  • Сверхъестественное / Supernatural (2014-2015) HDTVRip (Сезон 10, серии 0-2 из 23) [EN EN, RU Sub] (Обновляемая) скачать через торрент бесплатно
  • Сверхъестественное / Supernatural (2014) WEB-DLRip (сезон 10, серии 1-2 из ) LostFilm (oбновляемая) скачать через торрент бесплатно


    • Комментарии (0):

      Информация

      Информация

        Посетители, находящиеся в группе Гости, не могут оставлять комментарии в данной новости.

        ↓ Меню




        ↓ Опрос

        Вы добавили сайт в закладки?
        Да
        Нет


        Популярное