.
Авторизация | Регистрация

bitok.xyz

» » Ординатор / The Resident (2019) WEB-DL [H.264 / 1080p-LQ] (сезон 3, серии 1-4 из 23) TVShows (обновляемая) торрент скачать бесплатно


    Ординатор / The Resident (2019) WEB-DL [H.264 / 1080p-LQ] (сезон 3, серии 1-4 из 23) TVShows (обновляемая) торрент скачать бесплатно

    Дата: 26-10-2019, 05:00 | .torrent скачали: 0

    Ординатор / The Resident (2019) WEB-DL [H.264 / 1080p-LQ] (сезон 3, серии 1-4 из 23) TVShows (обновляемая)Производство: США
    Жанр: драма
    Режиссер: Роб Корн, Билл Д`Элиа, Филлип Нойс

    Актеры
    Мэтт Зукри, Эмили ВанКэмп, Мелина Канакаридис, Ван Мартен, Маниш Дайал, Тассо Фельдман, Джессика Мизел, Винс Фостер, Элизабет Лудлоу, Кэролайн Фридлюнд и др.

    Описание

    Главный герой этого сериала Девон Правеш работает доктором в одной из больниц своего города. Персонаж отличается идеалистическими взглядами на жизнь. Он сразу же показывает свои серьезные намерения, касаемые работы. Однако его руководитель доктор Конрад Хокинс с трудом привыкает к такому сотруднику. Взгляды Девона заставляют Конраду показать молодому сотруднику совершенно иную сторону врачебной практики.

    Возраст: 16+ (зрителям, достигшим 16 лет)
    Продолжительность: ~00: 44: 00 серия
    Качество видео: WEB-DL
    Перевод: Профессиональный многоголосый - TVShows
    Субтитры: английские
    Видео: AVC/H.264, 1920x1080 (16: 9), ~10.0 Mbps
    Аудио 1: AC3, 6 ch, 384 kbps - русский
    Аудио 2: E-AC3, 6 ch, 640 kbps - английский
    General
    Unique ID : 28046239417127738107736481079680423066 (0x1519825D08C4979E9AF23F7D1931D49A)
    Complete name : E: фильмыThe.Resident.S03.1080p.TVShowsThe.Resident.S03E01.1080p.TVShows.mkv
    Format : Matroska
    Format version : Version 4/Version 2
    File size : 3.21 GiB
    Duration : 43 min 21 s
    Overall bit rate : 10.6 Mb/s
    Encoded date : UTC 2019-09-27 17: 18: 15
    Writing application : mkvmerge v33.1.0 (\'Primrose\') 64-bit
    Writing library : libebml v1.3.7 + libmatroska v1.5.0
    Video
    ID : 1
    Format : AVC
    Format/Info : Advanced Video Codec
    Format profile : High@L4
    Format settings, CABAC : Yes
    Format settings, ReFrames : 4 frames
    Codec ID : V_MPEG4/ISO/AVC
    Duration : 43 min 21 s
    Bit rate mode : Constant
    Bit rate : 10 000 kb/s
    Width : 1 920 pixels
    Height : 1 080 pixels
    Display aspect ratio : 16: 9
    Frame rate mode : Constant
    Frame rate : 23.976 (24000/1001) FPS
    Color space : YUV
    Chroma subsampling : 4: 2: 0
    Bit depth : 8 bits
    Scan type : Progressive
    Bits/(Pixel*Frame) : 0.201
    Stream size : 2.90 GiB (90%)
    Default : Yes
    Forced : No
    Color range : Limited
    Color primaries : BT.709
    Transfer characteristics : BT.709
    Matrix coefficients : BT.709
    Audio #1
    ID : 2
    Format : AC-3
    Format/Info : Audio Coding 3
    Mode extension : CM (complete main)
    Format settings, Endianness : Big
    Codec ID : A_AC3
    Duration : 43 min 21 s
    Bit rate mode : Constant
    Bit rate : 384 kb/s
    Channel(s) : 6 channels
    Channel positions : Front: L C R, Side: L R, LFE
    Sampling rate : 48.0 kHz
    Frame rate : 31.250 FPS (1536 spf)
    Compression mode : Lossy
    Stream size : 119 MiB (4%)
    Title : TVShows
    Language : Russian
    Default : Yes
    Forced : Yes
    Audio #2
    ID : 3
    Format : E-AC-3
    Format/Info : Audio Coding 3
    Format settings, Endianness : Big
    Codec ID : A_EAC3
    Duration : 43 min 21 s
    Bit rate mode : Constant
    Bit rate : 640 kb/s
    Channel(s) : 6 channels
    Channel positions : Front: L C R, Side: L R, LFE
    Sampling rate : 48.0 kHz
    Frame rate : 187.500 FPS (256 spf)
    Compression mode : Lossy
    Stream size : 198 MiB (6%)
    Title : Original
    Language : English
    Default : No
    Forced : No
    Text
    ID : 4
    Format : UTF-8
    Codec ID : S_TEXT/UTF8
    Codec ID/Info : UTF-8 Plain Text
    Duration : 43 min 18 s
    Bit rate : 82 b/s
    Count of elements : 881
    Stream size : 26.2 KiB (0%)
    Title : English
    Language : English
    Default : No
    Forced : No


    Онлайн видео Ординатор



    Ординатор/The Resident (2019) WEB-DL [H.264/1080p-LQ] (сезон 3, серии 1-4 из 23) TVShows (обновляемая)
    Рейтинг →
     (голосов: 1, оценка 4/5, голосовать можно 1 раз )

    Другие торренты по теме:

  • Ординатор / The Resident (2018) WEBRip (сезон 1, серии 1 из 10) BaibaKo (обновляемая)[AD]
  • Ординатор / The Resident (2018) WEBRip / WEB-DL [H.264 / 720p-LQ] (сезон 1, серии 1-13 из 14) NewStudio (обновляемая) [AD]
  • Ординатор / The Resident (2018) WEB-DL [H.264 / 1080p-LQ] (сезон 2, серии 1-5 из 22) TVShows (обновляемая)
  • Ординатор / The Resident (2018) WEB-Rip [H.264 / 720p-LQ] (сезон 2, серии 1-7 из 22) BaibaKo [AD] (обновляемая)
  • Ординатор / The Resident (2018) WEB-Rip [H.264 / 720p-LQ] (сезон 2, серии 1- 23 из 23) ColdFilm [PR, AD]


    • Комментарии (0):

      Информация

      Информация

        Посетители, находящиеся в группе Гости, не могут оставлять комментарии в данной новости.

        ↓ Меню




        ↓ Опрос

        Вы добавили сайт в закладки?
        Да
        Нет


        Популярное