.
Авторизация | Регистрация

bitok.xyz

» » Новый Амстердам / New Amsterdam (2019) WEB-DL [H.264 / 1080p-LQ] (сезон 2, серии 1-4 из 22) TVShows (обновляемая) торрент скачать бесплатно


    Новый Амстердам / New Amsterdam (2019) WEB-DL [H.264 / 1080p-LQ] (сезон 2, серии 1-4 из 22) TVShows (обновляемая) торрент скачать бесплатно

    Дата: 26-10-2019, 05:00 | .torrent скачали: 0

    Новый Амстердам / New Amsterdam (2019) WEB-DL [H.264 / 1080p-LQ] (сезон 2, серии 1-4 из 22) TVShows (обновляемая)Производство: США
    Жанр: драма
    Режиссер: Кейт Дэннис, Лаура Белси, Питер Хортон

    Актеры
    Райан Эгголд, Джанет Монтгомери, Фрима Аджьеман, Джоко Симс, Тайлер Лабин, Анупам Кхер, Забрина Гевара, Лиза О’Харе, Стэйси Рэймонд, Алехандро Эрнандес и др.

    Описание

    Опытный специалист Макс Гудвин становится новым главврачом старейшей государственной больницы США Новый Амстердам. Его цель — вернуть былой престиж больнице, в которой сейчас не хватает персонала, оборудования и финансирования. Несмотря на все его старания, сотрудники пока не готовы довериться Гудвину: его предшественники также обещали привести больницу в порядок, но их заверения оставались просто словами.

    Возраст: 16+ (зрителям, достигшим 16 лет)
    Продолжительность: ~00: 43: 00 серия
    Качество видео: WEB-DL
    Перевод: Профессиональный многоголосый - TVShows
    Субтитры: английские
    Видео: AVC/H.264, 1920х1080 (16: 9), ~8 430 kbps
    Аудио 1: AC3, 6 ch, 384 kbps - русский
    Аудио 2: E-AC3, 6 ch, 640 kbps - английский
    General
    Unique ID : 144076947166028558667508802209701502254 (0x6C6435EF67EDB5366F729749287D1D2E)
    Complete name : E: фильмыNew.Amsterdam.S02.1080p.TVShowsNew.Amsterdam.S02E01.1080p.TVShows.mkv
    Format : Matroska
    Format version : Version 4/Version 2
    File size : 2.84 GiB
    Duration : 42 min 59 s
    Overall bit rate : 9 456 kb/s
    Encoded date : UTC 2019-09-28 08: 38: 59
    Writing application : mkvmerge v33.1.0 (\'Primrose\') 64-bit
    Writing library : libebml v1.3.7 + libmatroska v1.5.0
    Video
    ID : 1
    Format : AVC
    Format/Info : Advanced Video Codec
    Format profile : High@L4
    Format settings, CABAC : Yes
    Format settings, ReFrames : 4 frames
    Codec ID : V_MPEG4/ISO/AVC
    Duration : 42 min 59 s
    Bit rate mode : Constant
    Bit rate : 8 430 kb/s
    Nominal bit rate : 10 000 kb/s
    Width : 1 920 pixels
    Height : 1 080 pixels
    Display aspect ratio : 16: 9
    Frame rate mode : Constant
    Frame rate : 23.976 (24000/1001) FPS
    Color space : YUV
    Chroma subsampling : 4: 2: 0
    Bit depth : 8 bits
    Scan type : Progressive
    Bits/(Pixel*Frame) : 0.170
    Stream size : 2.53 GiB (89%)
    Language : English
    Default : Yes
    Forced : No
    Color range : Limited
    Color primaries : BT.709
    Transfer characteristics : BT.709
    Matrix coefficients : BT.709
    Audio #1
    ID : 2
    Format : AC-3
    Format/Info : Audio Coding 3
    Mode extension : CM (complete main)
    Format settings, Endianness : Big
    Codec ID : A_AC3
    Duration : 42 min 59 s
    Bit rate mode : Constant
    Bit rate : 384 kb/s
    Channel(s) : 6 channels
    Channel positions : Front: L C R, Side: L R, LFE
    Sampling rate : 48.0 kHz
    Frame rate : 31.250 FPS (1536 spf)
    Compression mode : Lossy
    Stream size : 118 MiB (4%)
    Title : TVShows
    Language : Russian
    Default : Yes
    Forced : Yes
    Audio #2
    ID : 3
    Format : E-AC-3
    Format/Info : Audio Coding 3
    Format settings, Endianness : Big
    Codec ID : A_EAC3
    Duration : 42 min 59 s
    Bit rate mode : Constant
    Bit rate : 640 kb/s
    Channel(s) : 6 channels
    Channel positions : Front: L C R, Side: L R, LFE
    Sampling rate : 48.0 kHz
    Frame rate : 187.500 FPS (256 spf)
    Compression mode : Lossy
    Stream size : 197 MiB (7%)
    Title : Original
    Language : English
    Default : No
    Forced : No
    Text
    ID : 4
    Format : UTF-8
    Codec ID : S_TEXT/UTF8
    Codec ID/Info : UTF-8 Plain Text
    Duration : 42 min 29 s
    Bit rate : 90 b/s
    Count of elements : 1019
    Stream size : 28.3 KiB (0%)
    Title : English
    Language : English
    Default : No
    Forced : No


    Онлайн видео Новый Амстердам



    Новый Амстердам/New Amsterdam (2019) WEB-DL [H.264/1080p-LQ] (сезон 2, серии 1-4 из 22) TVShows (обновляемая)
    Рейтинг →
     (голосов: 1, оценка 4/5, голосовать можно 1 раз )

    Другие торренты по теме:

  • Новый Амстердам / New Amsterdam (2018) WEB-DL [H.264 / 1080p-LQ] (сезон 1, серии 1-2 из 7) Jaskier (обновляемая) [AD]
  • Новый Амстердам / New Amsterdam (2018) WEB-DLRip (сезон 1, серии 1-4 из 7) NewStudio (обновляемая)
  • Новый Амстердам / New Amsterdam (2018) WEB-DL [H.264 / 1080p-LQ] (сезон 1, серии 1-4 из 7) TVShows (обновляемая)


    • Комментарии (0):

      Информация

      Информация

        Посетители, находящиеся в группе Гости, не могут оставлять комментарии в данной новости.

        ↓ Меню




        ↓ Опрос

        Вы добавили сайт в закладки?
        Да
        Нет


        Популярное