.
Авторизация | Регистрация

bitok.xyz

» » Любовь слепа / Love Is Blind (2019) WEB-DLRip [MVO] [AD] торрент скачать бесплатно


    Любовь слепа / Love Is Blind (2019) WEB-DLRip [MVO] [AD] торрент скачать бесплатно

    Дата: 27-10-2019, 05:00 | .torrent скачали: 0

    Любовь слепа / Love Is Blind (2019) WEB-DLRip [MVO] [AD]Производство: США/Locomotive, Regency Enterprises
    Жанр: Драма, комедия
    Режиссер: Монти Уайтблум, Энди Делани

    Актеры
    Шеннон Тарбет, Эйдан Тёрнер, Бенджамин Уокер, Мэттью Бродерик, Клоэ Севиньи, Марк Блум, Джейсон Фукс, Кэбби Бордерс, Сторми Эзра Бир Уайтблум, Катрина Ленк

    Описание

    Элизабет страдает от селективного восприятия: она не видит собственную мать и думает, что та умерла. Ее психотерапевт предлагает ей в качестве лечения проводить время с Расселом, парнем с суицидальными наклонностями. Рассел влюбляется в Элизабет, вот только проблема в том, что она его тоже не видит.

    Дата мировой премьеры: 25 марта 2019
    Продолжительность: 01: 32: 54
    Качество видео: WEB-DLRip
    Перевод: Многоголосый закадровый, любительский (AlphaProject)
    Субтитры: Отсутствуют
    Реклама: Присутствует баннер.
    Видео: XviD, 720x384, ~1663 Kbps
    Аудио: AC-3, 2 ch, 384 Kbps
    Общее
    Полное имя : D: NNMЛюбовь слепаLove.Is.Blind.2019.WEB-DLRip.avi
    Формат : AVI
    Формат/Информация : Audio Video Interleave
    Профиль формата : OpenDML
    Размер файла : 1, 34 Гбайт
    Продолжительность : 1 ч. 32 м.
    Общий поток : 2060 Кбит/сек
    Видео
    Идентификатор : 0
    Формат : MPEG-4 Visual
    Профиль формата : Advanced Simple@L5
    Настройки формата : BVOP2
    Параметр BVOP формата : 2
    Параметр QPel формата : Нет
    Параметр GMC формата : Без точки перехода
    Параметр матрицы формата : Default (H.263)
    Идентификатор кодека : XVID
    Идентификатор кодека/Подсказка : XviD
    Продолжительность : 1 ч. 32 м.
    Битрейт : 1663 Кбит/сек
    Ширина : 720 пикселей
    Высота : 384 пикселя
    Соотношение сторон : 1, 85: 1
    Частота кадров : 23, 976 (24000/1001) кадра/сек
    Цветовое пространство : YUV
    Субдискретизация насыщенности : 4: 2: 0
    Битовая глубина : 4 бит
    Тип развёртки : Прогрессивная
    Метод сжатия : С потерями
    Бит/(Пиксели*Кадры) : 0.251
    Размер потока : 1, 08 Гбайт (81%)
    Библиотека кодирования : XviD 1.2.1 (UTC 2008-12-04)
    Аудио
    Идентификатор : 1
    Формат : AC-3
    Формат/Информация : Audio Coding 3
    Коммерческое название : Dolby Digital
    Идентификатор кодека : 2000
    Продолжительность : 1 ч. 32 м.
    Вид битрейта : Постоянный
    Битрейт : 384 Кбит/сек
    Каналы : 2 канала
    ChannelLayout : L R
    Частота : 48, 0 КГц
    Частота кадров : 31, 250 кадров/сек (1536 SPF)
    Битовая глубина : 16 бит
    Метод сжатия : С потерями
    Размер потока : 255 Мбайт (19%)
    Выравнивание : Соединение по промежуткам
    Продолжительность промежутка : 32 мс. (0, 77 видеокадр)
    ServiceKind/String : Complete Main

    Скриншоты для ознакомления



    Все одноименные релизы в Клубе Время раздачи: 24/7 (до появления первых 3-5 скачавших)

    Онлайн видео Любовь слепа



    Любовь слепа/Love Is Blind (2019) WEB-DLRip [MVO] [AD]
    Рейтинг →
     (голосов: 1, оценка 5/5, голосовать можно 1 раз )

    Другие торренты по теме:

  • Любовь слепа / Love Is Blind (2019) WEB-DLRip [H.264 / 720p-LQ][MVO] [AD]


    • Комментарии (0):

      Информация

      Информация

        Посетители, находящиеся в группе Гости, не могут оставлять комментарии в данной новости.

        ↓ Меню




        ↓ Опрос

        Вы добавили сайт в закладки?
        Да
        Нет


        Популярное