.
Авторизация | Регистрация

bitok.xyz

» » Порталы / Portals (2019) WEB-DLRip [MVO] [AD] торрент скачать бесплатно


    Порталы / Portals (2019) WEB-DLRip [MVO] [AD] торрент скачать бесплатно

    Дата: 27-10-2019, 05:00 | .torrent скачали: 0

    Порталы / Portals (2019) WEB-DLRip [MVO] [AD]Производство: США/Bloody Disgusting, BoulderLight Pictures, PigRat Productions
    Жанр: Фантастика
    Режиссер: Грегг Хейл, Лайам О’Доннелл, Эдуардо Санчес

    Актеры
    Диана Руссо, Нил Хопкинс, Мишель Уивер, Птолеми Слокам, Клинт Юнг, Пол МакКарти-Бойингтон, Гретхен Лодж, Салвита Декорте, Кит Хадсон, Шелли Броутон

    Описание

    Ученым удалось создать первую в мире черную дыру, которая стала своеобразным порталом. Через некоторое время эти порталы появились по всему миру и начали привлекать к себе людей. И кто зашел по ту сторону — прежним уже не вернется.

    Дата мировой премьеры: 25 октября 2019
    Продолжительность: 01: 28: 26
    Качество видео: WEB-DLRip
    Перевод: Многоголосый закадровый, профессиональный (Синема УС)
    Субтитры: Отсутствуют
    Реклама: Присутствует баннер.
    Видео: XviD, 720x304, ~1774 Kbps
    Аудио: AC-3, 2 ch, 384 Kbps
    Общее
    Полное имя : D: NNMПорталыPortals.2019.WEB-DLRip.avi
    Формат : AVI
    Формат/Информация : Audio Video Interleave
    Профиль формата : OpenDML
    Размер файла : 1, 34 Гбайт
    Продолжительность : 1 ч. 28 м.
    Общий поток : 2171 Кбит/сек
    Видео
    Идентификатор : 0
    Формат : MPEG-4 Visual
    Профиль формата : Advanced Simple@L5
    Настройки формата : BVOP2
    Параметр BVOP формата : 2
    Параметр QPel формата : Нет
    Параметр GMC формата : Без точки перехода
    Параметр матрицы формата : Default (H.263)
    Идентификатор кодека : XVID
    Идентификатор кодека/Подсказка : XviD
    Продолжительность : 1 ч. 28 м.
    Битрейт : 1774 Кбит/сек
    Ширина : 720 пикселей
    Высота : 304 пикселя
    Соотношение сторон : 2, 35: 1
    Частота кадров : 23, 976 (24000/1001) кадра/сек
    Цветовое пространство : YUV
    Субдискретизация насыщенности : 4: 2: 0
    Битовая глубина : 4 бит
    Тип развёртки : Прогрессивная
    Метод сжатия : С потерями
    Бит/(Пиксели*Кадры) : 0.338
    Размер потока : 1, 10 Гбайт (82%)
    Библиотека кодирования : XviD 1.2.1 (UTC 2008-12-04)
    Аудио
    Идентификатор : 1
    Формат : AC-3
    Формат/Информация : Audio Coding 3
    Коммерческое название : Dolby Digital
    Идентификатор кодека : 2000
    Продолжительность : 1 ч. 28 м.
    Вид битрейта : Постоянный
    Битрейт : 384 Кбит/сек
    Каналы : 2 канала
    ChannelLayout : L R
    Частота : 48, 0 КГц
    Частота кадров : 31, 250 кадров/сек (1536 SPF)
    Битовая глубина : 16 бит
    Метод сжатия : С потерями
    Размер потока : 243 Мбайт (18%)
    Выравнивание : Соединение по промежуткам
    Продолжительность промежутка : 32 мс. (0, 77 видеокадр)
    ServiceKind/String : Complete Main

    Скриншоты для ознакомления



    Все одноименные релизы в Клубе Время раздачи: 24/7 (до появления первых 3-5 скачавших)

    Онлайн видео Порталы



    Порталы/Portals (2019) WEB-DLRip [MVO] [AD]
    Рейтинг →
     (голосов: 1, оценка 4/5, голосовать можно 1 раз )

    Другие торренты по теме:

  • Порталы / Portals (2019) WEB-DLRip [H.264 / 720p-LQ] [MVO] [AD]


    • Комментарии (0):

      Информация

      Информация

        Посетители, находящиеся в группе Гости, не могут оставлять комментарии в данной новости.

        ↓ Меню




        ↓ Опрос

        Вы добавили сайт в закладки?
        Да
        Нет


        Популярное