.
Авторизация | Регистрация

bitok.xyz

» » Zомбилэнд: Контрольный выстрел / Zombieland: Double Tap (2019) CAMRip [H.264 / 720p-LQ] [MVO] [AD] торрент скачать бесплатно


    Zомбилэнд: Контрольный выстрел / Zombieland: Double Tap (2019) CAMRip [H.264 / 720p-LQ] [MVO] [AD] торрент скачать бесплатно

    Дата: 27-10-2019, 05:00 | .torrent скачали: 0

    Zомбилэнд: Контрольный выстрел / Zombieland: Double Tap (2019) CAMRip [H.264 / 720p-LQ] [MVO] [AD]Производство: США/Columbia Pictures, Pariah
    Жанр: Ужасы, боевик, комедия
    Режиссер: Рубен Фляйшер

    Актеры
    Джесси Айзенберг, Вуди Харрельсон, Эмма Стоун, Эбигейл Бреслин, Зои Дойч, Розарио Доусон, Эван Джогиа, Билл Мюррей, Дэн Эйкройд, Люк Уилсон

    Описание

    Беспощадная и бесстрашная четверка охотников на зомби продолжает свое путешествие в глубь страны. На этот раз им предстоит сразиться не только с новыми видами живых мертвецов, но и вступить в схватку с другими выжившими, которые настроены совсем не дружелюбно. Кроме того, в собственных рядах охотников намечается серьезный разлад.

    Возраст: 18+ (зрителям, достигшим 18 лет. запрещено для детей)
    Рейтинг MPAA: R (лицам до 17 лет обязательно присутствие взрослого)
    Дата мировой премьеры: 9 октября 2019
    Дата премьеры в России: 24 октября 2019

    Продолжительность: 01: 38: 12
    Качество видео: CAMRip
    Перевод: Многоголосый закадровый, любительский (КОЛОБОК)
    Субтитры: Отсутствуют
    Реклама: Присутствует баннер.
    Видео: AVC/H.264, 1280x420, ~3649 Kbps
    Аудио: AC-3, 2 ch, 384 Kbps
    Общее
    Полное имя : D: NNMZомбилэндZombieland.Double.Tap.2019.TS.720p-LQ.mkv
    Формат : Matroska
    Версия формата : Version 2
    Размер файла : 2, 82 Гбайт
    Продолжительность : 1 ч. 38 м.
    Режим общего битрейта : Переменный
    Общий поток : 4115 Кбит/сек
    Программа кодирования : libmatroska 1.4.1
    Библиотека кодирования : SolveigMM Matroska Muxer Version 1.0.1502.31
    Видео
    Идентификатор : 1
    Формат : AVC
    Формат/Информация : Advanced Video Codec
    Профиль формата : High@L4.1
    Настройки формата : CABAC/4 Ref Frames
    Параметр CABAC формата : Да
    Параметр RefFrames формата : 4 кадра
    Идентификатор кодека : V_MPEG4/ISO/AVC
    Продолжительность : 1 ч. 38 м.
    Вид битрейта : Переменный
    Битрейт : 3649 Кбит/сек
    Максимальный битрейт : 4000 Кбит/сек
    Ширина : 1280 пикселей
    Высота : 420 пикселей
    Соотношение сторон : 3, 048
    Режим частоты кадров : Постоянный
    Частота кадров : 23, 976 (24000/1001) кадра/сек
    Стандарт вещания : Component
    Цветовое пространство : YUV
    Субдискретизация насыщенности : 4: 2: 0
    Битовая глубина : 8 бит
    Тип развёртки : Прогрессивная
    Бит/(Пиксели*Кадры) : 0.283
    Размер потока : 2, 50 Гбайт (89%)
    Default : Нет
    Forced : Нет
    Цветовой диапазон : Limited
    Основные цвета : BT.709
    Характеристики трансфера : BT.709
    Коэффициенты матрицы : BT.709
    Аудио
    Идентификатор : 2
    Формат : AC-3
    Формат/Информация : Audio Coding 3
    Коммерческое название : Dolby Digital
    Идентификатор кодека : A_AC3
    Продолжительность : 1 ч. 38 м.
    Вид битрейта : Постоянный
    Битрейт : 384 Кбит/сек
    Каналы : 2 канала
    ChannelLayout : L R
    Частота : 48, 0 КГц
    Частота кадров : 31, 250 кадров/сек (1536 SPF)
    Битовая глубина : 16 бит
    Метод сжатия : С потерями
    Размер потока : 270 Мбайт (9%)
    Язык : Russian
    ServiceKind/String : Complete Main
    Default : Нет
    Forced : Нет

    Скриншоты для ознакомления



    Все одноименные релизы в Клубе Время раздачи: 24/7 (до появления первых 3-5 скачавших)

    Онлайн видео Zомбилэнд: Контрольный выстрел



    Zомбилэнд: Контрольный выстрел/Zombieland: Double Tap (2019) CAMRip [H.264/720p-LQ] [MVO] [AD]
    Рейтинг →
     (голосов: 1, оценка 4/5, голосовать можно 1 раз )

    Другие торренты по теме:

  • Добро пожаловать в Zомбилэнд / Zombieland (2009) BDRip [720p] [hand made 60fps] скачать через торрент бесплатно
  • Добро пожаловать в Zомбилэнд / Zombieland (2009) BDRip [H.264 / 720p-LQ] скачать через торрент бесплатно
  • Добро пожаловать в Zомбилэнд / Zombieland (2009) BDRip [H.264 / 1080p] [PR]
  • Добро пожаловать в Zомбилэнд / Zombieland (2009) WEB-DLRip [H.264 / 720p] [Open Matte]
  • Добро пожаловать в Zомбилэнд / Zombieland (2009) BDRip [H.264 / 1080p]
  • Добро пожаловать в Zомбилэнд / Zombieland (2009) WEB-DL [H.264 / 1080p] [Open Matte]


    • Комментарии (0):

      Информация

      Информация

        Посетители, находящиеся в группе Гости, не могут оставлять комментарии в данной новости.

        ↓ Меню




        ↓ Опрос

        Вы добавили сайт в закладки?
        Да
        Нет


        Популярное