.
Авторизация | Регистрация

bitok.xyz

» » Хорошую женщину найти тяжело / A Good Woman Is Hard to Find (2019) WEB-DLRip [MVO] [AD] торрент скачать бесплатно


    Хорошую женщину найти тяжело / A Good Woman Is Hard to Find (2019) WEB-DLRip [MVO] [AD] торрент скачать бесплатно

    Дата: 27-10-2019, 05:00 | .torrent скачали: 1

    Хорошую женщину найти тяжело / A Good Woman Is Hard to Find (2019) WEB-DLRip [MVO] [AD]Производство: Великобритания, Бельгия, Ирландия/February Films, Frakas Productions
    Жанр: Триллер, криминал
    Режиссер: Эбнер Пастолл

    Актеры
    Сара Болгер, Эдвард Хогг, Эндрю Симпсон, Джейн Бреннан, Каолан Бирн, Пакки Ли, Rudy Doherty, Macie McCauley, Сьюзэн Атех, Шиван Келли

    Описание

    Сара — недавно овдовевшая мать двоих детей. Её сын Бен стал немым, после того как на его глазах убили отца. Полиция не сделала ничего, чтобы поймать убийцу. И тут в жизнь Сары буквально врывается Тито. Он скрывается от наркодилеров и решает спрятать украденные наркотики в её квартире…

    Возраст: 18+ (зрителям, достигшим 18 лет. запрещено для детей)
    Дата мировой премьеры: 21 июля 2019
    Продолжительность: 01: 36: 23
    Качество видео: WEB-DLRip
    Перевод: Многоголосый закадровый, профессиональный (Синема УС)
    Субтитры: Отсутствуют
    Реклама: Присутствует баннер.
    Видео: XviD, 720x304, ~1599 Kbps
    Аудио: AC-3, 2 ch, 384 Kbps
    Общее
    Полное имя : D: NNMХорошую женщину найти тяжелоA.Good.Woman.Is.Hard.to.Find.2019.WEB-DLRip.avi
    Формат : AVI
    Формат/Информация : Audio Video Interleave
    Профиль формата : OpenDML
    Размер файла : 1, 34 Гбайт
    Продолжительность : 1 ч. 36 м.
    Общий поток : 1995 Кбит/сек
    Видео
    Идентификатор : 0
    Формат : MPEG-4 Visual
    Профиль формата : Advanced Simple@L5
    Настройки формата : BVOP2/Custom Matrix
    Параметр BVOP формата : 2
    Параметр QPel формата : Нет
    Параметр GMC формата : Без точки перехода
    Параметр матрицы формата : Выборочная
    Идентификатор кодека : XVID
    Идентификатор кодека/Подсказка : XviD
    Продолжительность : 1 ч. 36 м.
    Битрейт : 1599 Кбит/сек
    Ширина : 720 пикселей
    Высота : 304 пикселя
    Соотношение сторон : 2, 35: 1
    Частота кадров : 23, 976 (24000/1001) кадра/сек
    Цветовое пространство : YUV
    Субдискретизация насыщенности : 4: 2: 0
    Битовая глубина : 8 бит
    Тип развёртки : Прогрессивная
    Метод сжатия : С потерями
    Бит/(Пиксели*Кадры) : 0.305
    Размер потока : 1, 08 Гбайт (80%)
    Библиотека кодирования : XviD 1.2.1 (UTC 2008-12-04)
    Аудио
    Идентификатор : 1
    Формат : AC-3
    Формат/Информация : Audio Coding 3
    Коммерческое название : Dolby Digital
    Идентификатор кодека : 2000
    Продолжительность : 1 ч. 36 м.
    Вид битрейта : Постоянный
    Битрейт : 384 Кбит/сек
    Каналы : 2 канала
    ChannelLayout : L R
    Частота : 48, 0 КГц
    Частота кадров : 31, 250 кадров/сек (1536 SPF)
    Битовая глубина : 16 бит
    Метод сжатия : С потерями
    Размер потока : 265 Мбайт (19%)
    Выравнивание : Соединение по промежуткам
    Продолжительность промежутка : 32 мс. (0, 77 видеокадр)
    ServiceKind/String : Complete Main

    Скриншоты для ознакомления



    Все одноименные релизы в Клубе Время раздачи: 24/7 (до появления первых 3-5 скачавших)

    Онлайн видео Хорошую женщину найти тяжело



    Хорошую женщину найти тяжело/A Good Woman Is Hard to Find (2019) WEB-DLRip [MVO] [AD]
    Рейтинг →
     (голосов: 1, оценка 5/5, голосовать можно 1 раз )

    Другие торренты по теме:

  • Хорошую женщину найти тяжело / A Good Woman Is Hard to Find (2019) WEB-DLRip [H.264 / 720p-LQ] [MVO] [AD]


    • Комментарии (0):

      Информация

      Информация

        Посетители, находящиеся в группе Гости, не могут оставлять комментарии в данной новости.

        ↓ Меню




        ↓ Опрос

        Вы добавили сайт в закладки?
        Да
        Нет


        Популярное