.
Авторизация | Регистрация

bitok.xyz

» » Хорошую женщину найти тяжело / A Good Woman Is Hard to Find (2019) WEB-DLRip [H.264 / 720p-LQ] [MVO] [AD] торрент скачать бесплатно


    Хорошую женщину найти тяжело / A Good Woman Is Hard to Find (2019) WEB-DLRip [H.264 / 720p-LQ] [MVO] [AD] торрент скачать бесплатно

    Дата: 27-10-2019, 05:00 | .torrent скачали: 1

    Хорошую женщину найти тяжело / A Good Woman Is Hard to Find (2019) WEB-DLRip [H.264 / 720p-LQ] [MVO] [AD]Производство: Великобритания, Бельгия, Ирландия/February Films, Frakas Productions
    Жанр: Триллер, криминал
    Режиссер: Эбнер Пастолл

    Актеры
    Сара Болгер, Эдвард Хогг, Эндрю Симпсон, Джейн Бреннан, Каолан Бирн, Пакки Ли, Rudy Doherty, Macie McCauley, Сьюзэн Атех, Шиван Келли

    Описание

    Сара — недавно овдовевшая мать двоих детей. Её сын Бен стал немым, после того как на его глазах убили отца. Полиция не сделала ничего, чтобы поймать убийцу. И тут в жизнь Сары буквально врывается Тито. Он скрывается от наркодилеров и решает спрятать украденные наркотики в её квартире…

    Возраст: 18+ (зрителям, достигшим 18 лет. запрещено для детей)
    Дата мировой премьеры: 21 июля 2019
    Продолжительность: 01: 36: 23
    Качество видео: WEB-DLRip
    Перевод: Многоголосый закадровый, профессиональный (Синема УС)
    Субтитры: Отсутствуют
    Реклама: Присутствует баннер.
    Видео: AVC/H.264, 1280x536, ~5297 Kbps
    Аудио: AC-3, 2 ch, 384 Kbps
    Общее
    Уникальный идентификатор : 228522918178327316471692996463028040716 (0xABEBE9C19102367EAC0C09EBC6DF740C)
    Полное имя : D: NNMХорошую женщину найти тяжелоA.Good.Woman.Is.Hard.to.Find.2019.WEB-DLRip.72Op-LQ.mkv
    Формат : Matroska
    Версия формата : Version 4
    Размер файла : 3, 90 Гбайт
    Продолжительность : 1 ч. 36 м.
    Режим общего битрейта : Переменный
    Общий поток : 5796 Кбит/сек
    Дата кодирования : UTC 2019-10-26 16: 36: 36
    Программа кодирования : mkvmerge v6.9.1 (\'Blue Panther\') 32bit built on Apr 18 2014 18: 15: 44
    Библиотека кодирования : libebml v1.3.0 + libmatroska v1.4.1
    Видео
    Идентификатор : 1
    Формат : AVC
    Формат/Информация : Advanced Video Codec
    Профиль формата : High@L4.1
    Настройки формата : CABAC/4 Ref Frames
    Параметр CABAC формата : Да
    Параметр RefFrames формата : 4 кадра
    Идентификатор кодека : V_MPEG4/ISO/AVC
    Продолжительность : 1 ч. 36 м.
    Вид битрейта : Переменный
    Битрейт : 5297 Кбит/сек
    Номинальный битрейт : 6000 Кбит/сек
    Максимальный битрейт : 6000 Кбит/сек
    Ширина : 1280 пикселей
    Высота : 536 пикселей
    Соотношение сторон : 2, 40: 1
    Режим частоты кадров : Постоянный
    Частота кадров : 23, 976 (24000/1001) кадра/сек
    Стандарт вещания : Component
    Цветовое пространство : YUV
    Субдискретизация насыщенности : 4: 2: 0
    Битовая глубина : 8 бит
    Тип развёртки : Прогрессивная
    Бит/(Пиксели*Кадры) : 0.322
    Размер потока : 3, 57 Гбайт (91%)
    Default : Нет
    Forced : Нет
    Цветовой диапазон : Limited
    Основные цвета : BT.709
    Характеристики трансфера : BT.709
    Коэффициенты матрицы : BT.709
    Аудио
    Идентификатор : 2
    Формат : AC-3
    Формат/Информация : Audio Coding 3
    Коммерческое название : Dolby Digital
    Идентификатор кодека : A_AC3
    Продолжительность : 1 ч. 36 м.
    Вид битрейта : Постоянный
    Битрейт : 384 Кбит/сек
    Каналы : 2 канала
    ChannelLayout : L R
    Частота : 48, 0 КГц
    Частота кадров : 31, 250 кадров/сек (1536 SPF)
    Битовая глубина : 16 бит
    Метод сжатия : С потерями
    Размер потока : 265 Мбайт (7%)
    Язык : Russian
    ServiceKind/String : Complete Main
    Default : Да
    Forced : Нет

    Скриншоты для ознакомления



    Все одноименные релизы в Клубе Время раздачи: 24/7 (до появления первых 3-5 скачавших)

    Онлайн видео Хорошую женщину найти тяжело



    Хорошую женщину найти тяжело/A Good Woman Is Hard to Find (2019) WEB-DLRip [H.264/720p-LQ] [MVO] [AD]
    Рейтинг →
     (голосов: 1, оценка 4/5, голосовать можно 1 раз )

    Другие торренты по теме:

  • Хорошую женщину найти тяжело / A Good Woman Is Hard to Find (2019) WEB-DLRip [MVO] [AD]


    • Комментарии (0):

      Информация

      Информация

        Посетители, находящиеся в группе Гости, не могут оставлять комментарии в данной новости.

        ↓ Меню




        ↓ Опрос

        Вы добавили сайт в закладки?
        Да
        Нет


        Популярное