.
Авторизация | Регистрация

bitok.xyz

» » Хеллбой / Hellboy (2019) DVD5 [Custom] торрент скачать бесплатно


    Хеллбой / Hellboy (2019) DVD5 [Custom] торрент скачать бесплатно

    Дата: 27-10-2019, 05:00 | .torrent скачали: 1

    Хеллбой / Hellboy (2019) DVD5 [Custom]Производство: США, Великобритания, Болгария, Канада/Millennium Films, Summit Entertainment, Boyana Film Studios
    Жанр: Фэнтези, боевик, приключения
    Режиссер: Нил Маршалл
    Продюсер: Лоуренс Гордон, Карл Хампе, Ярив Лернер

    Актеры
    Дэвид Харбор, Иэн Макшейн, Милла Йовович, Саша Лэйн, Дэниэл Дэ Ким, Алистэр Петри, Софи Оконедо, Брин Глисон, Томас Хейден Чёрч, Стивен Грэм

    Описание

    Близится час битвы Хеллбоя с Кровавой королевой, жаждущей отомстить всему человечеству за века в заточении. Оказавшись в эпицентре столкновения миров людей и монстров, Хеллбою придется пройти через ад, чтобы предотвратить надвигающийся апокалипсис.

    Возраст: 18+ (зрителям, достигшим 18 лет. запрещено для детей)
    Рейтинг MPAA: R (лицам до 17 лет обязательно присутствие взрослого)
    Дата мировой премьеры: 9 апреля 2019
    Дата российской премьеры: 11 апреля 2019, MEGOGO Distribution

    Продолжительность: 01: 55: 49
    Качество видео: DVD5
    Перевод: Дублированный (лицензия)
    Субтитры: Русские
    Видео: MPEG-2, 720x576@1024x576 (PAL 16: 9), ~4500 Kbps
    Аудио 1: AC3 5.1, 448 Kbps (Русский - дублированный)
    Аудио 2: AC3 5.1, 448 Kbps (Английский - оригинал)Title: Hellboy (2019) DVD5
    Size: 4.36 Gb ( 4 567 582, 00 KBytes ) - DVD-5
    Enabled regions: 1, 2, 3, 4, 5, 6, 7, 8
    VTS_01 :
    Play Length: 00: 00: 00
    Video: PAL 4: 3 (720x576) VBR
    Audio:
    Not specified (Dolby AC3, 2 ch)
    VTS_02 :
    Play Length: 01: 55: 49
    Video: PAL 16: 9 (720x576) VBR, Auto Letterboxed
    Audio:
    Russian, AC3, 3/2 (L, C, R, SL, SR)+LFE ch, 448 kbps, Delay 0 mSec
    English, AC3, 3/2 (L, C, R, SL, SR)+LFE ch, 448 kbps, Delay 0 mSec
    Subtitles:
    Russian
    RussianОбщее
    Полное имя : F: Hellboy (2019) DVD5VIDEO_TSVTS_02_1.VOB
    Формат : MPEG-PS
    Размер файла : 1024 Мбайт
    Продолжительность : 25 м. 42 с.
    Режим общего битрейта : Переменный
    Общий поток : 5567 Кбит/сек
    Видео
    Идентификатор : 224 (0xE0)
    Формат : MPEG Video
    Версия формата : Version 2
    Профиль формата : Main@Main
    Настройки формата : CustomMatrix/BVOP
    Параметр BVOP формата : Да
    Параметр матрицы формата : Выборочная
    Параметр GOP формата : Variable
    Продолжительность : 25 м. 42 с.
    Вид битрейта : Переменный
    Битрейт : 4560 Кбит/сек
    Максимальный битрейт : 8904 Кбит/сек
    Ширина : 720 пикселей
    Высота : 576 пикселей
    Соотношение сторон : 16: 9
    Частота кадров : 25, 000 кадров/сек
    Стандарт вещания : PAL
    Цветовое пространство : YUV
    Субдискретизация насыщенности : 4: 2: 0
    Битовая глубина : 8 бит
    Тип развёртки : Прогрессивная
    Порядок развёртки : Нижнее поле первое
    Метод сжатия : С потерями
    Бит/(Пиксели*Кадры) : 0.440
    Временной код первого кадра : 00: 00: 00: 00
    Оригинал временного кода : Group of pictures t_head
    GOP, открыто/закрыто : Открыто
    GOP, открыто/закрыто на первом кадре : Закрыто
    Размер потока : 839 Мбайт (82%)
    Аудио #1
    Идентификатор : 189 (0xBD)-128 (0x80)
    Формат : AC-3
    Формат/Информация : Audio Coding 3
    Параметр Endianness формата : Big
    Режим смешивания : DVD-Video
    Продолжительность : 25 м. 42 с.
    Вид битрейта : Постоянный
    Битрейт : 448 Кбит/сек
    Каналы : 6 каналов
    Расположение каналов : Front: L C R, Side: L R, LFE
    Частота : 48, 0 КГц
    Частота кадров : 31, 250 кадров/сек (1536 SPF)
    Битовая глубина : 16 бит
    Метод сжатия : С потерями
    Размер потока : 82, 4 Мбайт (8%)
    ServiceKind/String : Complete Main
    Аудио #2
    Идентификатор : 189 (0xBD)-129 (0x81)
    Формат : AC-3
    Формат/Информация : Audio Coding 3
    Параметр Endianness формата : Big
    Режим смешивания : DVD-Video
    Продолжительность : 25 м. 42 с.
    Вид битрейта : Постоянный
    Битрейт : 448 Кбит/сек
    Каналы : 6 каналов
    Расположение каналов : Front: L C R, Side: L R, LFE
    Частота : 48, 0 КГц
    Частота кадров : 31, 250 кадров/сек (1536 SPF)
    Битовая глубина : 16 бит
    Метод сжатия : С потерями
    Размер потока : 82, 4 Мбайт (8%)
    ServiceKind/String : Complete Main
    Меню


    Онлайн видео Хеллбой



    Хеллбой/Hellboy (2019) DVD5 [Custom]
    Рейтинг →
     (голосов: 1, оценка 5/5, голосовать можно 1 раз )

    Другие торренты по теме:

  • Хеллбой / Hellboy (2004 / 2008) BDRip [720p] [Дилогия] скачать через торрент бесплатно
  • Хеллбой / Hellboy (2019) CamRip [H.264] [MP4|1280x720]
  • Хеллбой / Hellboy (2019) CamRip [H.264 / 720p-LQ] [AD]
  • Хеллбой / Hellboy (2019) CamRip [AD]
  • Хеллбой / Hellboy (2019) WEBRip [H.264] [UKR, EN / EN, KOR Sub] [Line]
  • Хеллбой / Hellboy (2019) WEBRip [UKR / KOR Sub] [Line]
  • Хеллбой / Hellboy (2019) WEBRip [H.264 / 1080p-LQ] [UKR, EN / EN, KOR Sub] [Line]
  • Хеллбой / Hellboy (2019) WEBRip [H.264] [MVO]


    • Комментарии (0):

      Информация

      Информация

        Посетители, находящиеся в группе Гости, не могут оставлять комментарии в данной новости.

        ↓ Меню




        ↓ Опрос

        Вы добавили сайт в закладки?
        Да
        Нет


        Популярное