.
Авторизация | Регистрация

bitok.xyz

» » Сверх(НЕ)естественное / Extra Ordinary (2019) BDRip [H.265 / 1080p] [10-bit] [PR] торрент скачать бесплатно


    Сверх(НЕ)естественное / Extra Ordinary (2019) BDRip [H.265 / 1080p] [10-bit] [PR] торрент скачать бесплатно

    Дата: 27-10-2019, 05:00 | .torrent скачали: 0

    Сверх(НЕ)естественное / Extra Ordinary (2019) BDRip [H.265 / 1080p] [10-bit] [PR]Производство: Ирландия, Бельгия, Blinder Films, Epic Pictures Group
    Жанр: Комедия, ужасы, фэнтези
    Режиссер: Майк Ахерн, Энда Логман

    Актеры
    Маив Хиггинс, Бэрри Уорд, Уилл Форте, Клаудия О`Доэрти, Джэми Бимиш, Terri Chandler, Ристерд Купер, Emma Coleman, Кэрри Краули, Мэри МакЭвой

    Описание

    Скромная Роуз обладает экстрасенсорными способностями, но соседи достают ее лишь просьбами изгнать духов надоедливых родственников. Однажды в ее родном городке объявляется рок-звезда Кристиан Уинтер. Наделенный дьявольской силой, он околдовывает местную девушку, и ее отец в отчаянии просит Роуз о помощи. У героини появляется шанс раскрыть свой дар, а заодно устроить личную жизнь.

    Возраст: 18+ (зрителям, достигшим 18 лет. запрещено для детей)
    Рейтинг MPAA: R (лицам до 17 лет обязательно присутствие взрослого)
    Дата мировой премьеры: 10 марта 2019
    Дата российской премьеры: 18 октября 2019, Вольга
    Продолжительность: 01: 34: 20
    Качество видео: BDRip (1080p)
    Перевод: Дублированный (iTunes )
    Субтитры: Русские
    Видео: HEVC/H.265, 1920x800, ~8646 Kbps
    Аудио 1: AC3, 6 ch, 384 Kbps | Русский
    Аудио 2: AC3, 6 ch, 640 Kbps | Английский
    Общее
    Уникальный идентификатор : 44364164995969783411130613626739828962 (0x21603A35BAC1DFBDDD6D2A41929328E2)
    Полное имя : Extra.Ordinary.2019.BDRip.1080p.10bit.HEVC.mkv
    Формат : Matroska
    Версия формата : Version 4/Version 2
    Размер файла : 6, 50 Гбайт
    Продолжительность : 1 ч. 34 м.
    Общий поток : 9867 Кбит/сек
    Название фильма : Extra Ordinary 2019
    Программа кодирования : XviD4PSP 8.0.77
    Библиотека кодирования : Lavf58.20.100
    ErrorDetectionType : Per level 1
    ENCODING_INFO : MATROSKA, WEBM MKV
    Видео
    Идентификатор : 1
    Формат : HEVC
    Формат/Информация : High Efficiency Video Coding
    Профиль формата : Main10@L4.1@High
    Идентификатор кодека : V_MPEGH/ISO/HEVC
    Продолжительность : 1 ч. 34 м.
    Битрейт : 8646 Кбит/сек
    Ширина : 1920 пикселей
    Высота : 800 пикселей
    Соотношение сторон : 2, 40: 1
    Режим частоты кадров : Постоянный
    Частота кадров : 24, 000 кадра/сек
    Цветовое пространство : YUV
    Субдискретизация насыщенности : 4: 2: 0
    Битовая глубина : 10 бит
    Бит/(Пиксели*Кадры) : 0.235
    Размер потока : 5, 70 Гбайт (88%)
    Язык : German
    Default : Да
    Forced : Нет
    Цветовой диапазон : Full
    ENCODING_INFO : H264 HEVC NVENC VBR 9000kbps HQ
    Аудио #1
    Идентификатор : 2
    Формат : AC-3
    Формат/Информация : Audio Coding 3
    Параметр Endianness формата : Big
    Идентификатор кодека : A_AC3
    Продолжительность : 1 ч. 34 м.
    Вид битрейта : Постоянный
    Битрейт : 384 Кбит/сек
    Каналы : 6 каналов
    Расположение каналов : Front: L C R, Side: L R, LFE
    Частота : 48, 0 КГц
    Частота кадров : 31, 250 кадров/сек (1536 SPF)
    Битовая глубина : 16 бит
    Метод сжатия : С потерями
    Размер потока : 259 Мбайт (4%)
    Заголовок : iTunes
    Язык : Russian
    ServiceKind/String : Complete Main
    Default : Да
    Forced : Нет
    ENCODING_INFO : AC3 COPY Безопасное
    Аудио #2
    Идентификатор : 3
    Формат : AC-3
    Формат/Информация : Audio Coding 3
    Параметр Endianness формата : Big
    Идентификатор кодека : A_AC3
    Продолжительность : 1 ч. 34 м.
    Вид битрейта : Постоянный
    Битрейт : 640 Кбит/сек
    Каналы : 6 каналов
    Расположение каналов : Front: L C R, Side: L R, LFE
    Частота : 48, 0 КГц
    Частота кадров : 31, 250 кадров/сек (1536 SPF)
    Битовая глубина : 16 бит
    Метод сжатия : С потерями
    Размер потока : 432 Мбайт (6%)
    Заголовок : Original
    Язык : English
    ServiceKind/String : Complete Main
    Default : Нет
    Forced : Нет
    ENCODING_INFO : DTS-HD MA AC3 CBR 640kbps
    Текст
    Идентификатор : 4
    Формат : UTF-8
    Идентификатор кодека : S_TEXT/UTF8
    Идентификатор кодека/Информация : UTF-8 Plain Text
    Заголовок : Full
    Язык : Russian
    Default : Да
    Forced : Нет
    ENCODING_INFO : SUBRIP COPY Быстрое
    Меню
    00: 00: 00.000 : : 00: 00: 00.000
    00: 10: 08.542 : : 00: 10: 08.542
    00: 20: 12.667 : : 00: 20: 12.667
    00: 28: 46.500 : : 00: 28: 46.500
    00: 36: 38.958 : : 00: 36: 38.958
    00: 46: 45.250 : : 00: 46: 45.250
    00: 57: 59.292 : : 00: 57: 59.292
    01: 06: 36.542 : : 01: 06: 36.542
    01: 17: 14.750 : : 01: 17: 14.750
    01: 28: 53.458 : : 01: 28: 53.458

    Скриншоты для ознакомления



    Все одноименные релизы в Клубе
    Время раздачи: 24/7 (до появления первых 3-5 скачавших)

    Онлайн видео Сверх(НЕ)естественное



    Сверх(НЕ)естественное/Extra Ordinary (2019) BDRip [H.265/1080p] [10-bit] [PR]
    Рейтинг →
     (голосов: 1, оценка 4/5, голосовать можно 1 раз )

    Другие торренты по теме:

  • Сверх(НЕ)естественное / Extra Ordinary (2019) WEB-DL [H.264 / 1080p-LQ]
  • Сверх(НЕ)естественное / Extra Ordinary (2019) WEB-DLRip
  • Сверх(НЕ)естественное / Extra Ordinary (2019) BDRip [H.265 / 720p] [PR]
  • Сверх(НЕ)естественное / Extra Ordinary (2019) BDRip [H.265] [10-bit]
  • Сверх(НЕ)естественное / Extra Ordinary (2019) BDRemux [H.264 / 1080p]
  • Сверх(НЕ)естественное / Extra Ordinary (2019) BDRip [H.264 / 1080p]


    • Комментарии (0):

      Информация

      Информация

        Посетители, находящиеся в группе Гости, не могут оставлять комментарии в данной новости.

        ↓ Меню




        ↓ Опрос

        Вы добавили сайт в закладки?
        Да
        Нет


        Популярное