.
Авторизация | Регистрация

bitok.xyz

» » Люди в черном: Интернэшнл / Men in Black International (2019) DVD5 [Custom] торрент скачать бесплатно

    Люди в черном: Интернэшнл / Men in Black International (2019) DVD5 [Custom] торрент скачать бесплатно

    Дата: 27-10-2019, 05:00 | .torrent скачали: 0

    Люди в черном: Интернэшнл / Men in Black International (2019) DVD5 [Custom]Производство: США/Sony Pictures Entertainment (SPE), Columbia Pictures Corporation, Tencent Pictures, P+M Image Nation, Amblin Entertainment
    Жанр: Фантастика, боевик, комедия, приключения
    Режиссер: Ф. Гэри Грей
    Продюсер: Лори МакДональд, Уолтер Ф. Паркс, Давид Бобэр

    Актеры
    Крис Хемсворт, Тесса Томпсон, Кумэйл Нанджиани, Ребекка Фергюсон, Рейф Сполл, Эмма Томпсон, Лиам Нисон, Лоран Буржуа, Ларри Буржуа, Кайван Новак

    Описание

    Люди в черном, тайная организация на страже покоя и безопасности Земли, уже не раз защищали нас от нападения отбросов Вселенной. На этот раз самая большая опасность для мирового сообщества, которой агентам предстоит противостоять — шпион в их рядах.

    Возраст: 12+ (зрителям, достигшим 12 лет)
    Рейтинг MPAA: PG-13 (детям до 13 лет просмотр нежелателен)
    Дата мировой премьеры: 11 июня 2019
    Дата российской премьеры: 12 июня 2019, WDSSPR

    Продолжительность: 01: 50: 18
    Качество видео: DVD5
    Перевод: Дублированный (лицензия)
    Субтитры: Русские, английские, датские, эстонские, финские, латышские, литовские, норвежские, испанские, шведские, украинские
    Видео: MPEG-2, 720x576@1024x576 (PAL 16: 9), ~3400 Kbps
    Аудио 1: AC3 5.1, 448 Kbps (Английский - оригинал)
    Аудио 2: AC3 5.1, 384 Kbps (Русский - дублированный)Title: Men in Black International (2019) DVD5
    Size: 4.37 Gb ( 4 580 664, 00 KBytes ) - DVD-5
    Enabled regions: 1, 2, 3, 4, 5, 6, 7, 8
    VTS_01 :
    Play Length: 01: 50: 18
    Video: PAL 16: 9 (720x576) VBR, Auto Letterboxed
    Audio:
    English, AC3, 3/2 (L, C, R, SL, SR)+LFE ch, 448 kbps, Delay 0 mSec
    Russian, AC3, 3/2 (L, C, R, SL, SR)+LFE ch, 384 kbps, Delay 0 mSec
    Subtitles:
    English
    English
    Dansk
    Estonian
    Suomi
    Latvian
    Lithuanian
    Norsk
    Russian
    Espanol
    Svenska
    UkrainianОбщее
    Полное имя : F: Men in Black International (2019) DVD5VIDEO_TSVTS_01_2.VOB
    Формат : MPEG-PS
    Размер файла : 1024 Мбайт
    Продолжительность : 32 м. 43 с.
    Режим общего битрейта : Переменный
    Общий поток : 4376 Кбит/сек
    Видео
    Идентификатор : 224 (0xE0)
    Формат : MPEG Video
    Версия формата : Version 2
    Профиль формата : Main@Main
    Настройки формата : CustomMatrix/BVOP
    Параметр BVOP формата : Да
    Параметр матрицы формата : Выборочная
    Параметр GOP формата : Variable
    Продолжительность : 32 м. 42 с.
    Вид битрейта : Переменный
    Битрейт : 3457 Кбит/сек
    Максимальный битрейт : 6913 Кбит/сек
    Ширина : 720 пикселей
    Высота : 576 пикселей
    Соотношение сторон : 16: 9
    Частота кадров : 25, 000 кадров/сек
    Стандарт вещания : PAL
    Цветовое пространство : YUV
    Субдискретизация насыщенности : 4: 2: 0
    Битовая глубина : 8 бит
    Тип развёртки : Прогрессивная
    Порядок развёртки : Нижнее поле первое
    Метод сжатия : С потерями
    Бит/(Пиксели*Кадры) : 0.333
    Временной код первого кадра : 00: 34: 48: 01
    Оригинал временного кода : Group of pictures t_head
    Размер потока : 809 Мбайт (79%)
    Аудио #1
    Идентификатор : 189 (0xBD)-128 (0x80)
    Формат : AC-3
    Формат/Информация : Audio Coding 3
    Параметр Endianness формата : Big
    Режим смешивания : DVD-Video
    Продолжительность : 32 м. 43 с.
    Вид битрейта : Постоянный
    Битрейт : 448 Кбит/сек
    Каналы : 6 каналов
    Расположение каналов : Front: L C R, Side: L R, LFE
    Частота : 48, 0 КГц
    Частота кадров : 31, 250 кадров/сек (1536 SPF)
    Битовая глубина : 16 бит
    Метод сжатия : С потерями
    Задержка видео : -680 мс.
    Размер потока : 105 Мбайт (10%)
    ServiceKind/String : Complete Main
    Аудио #2
    Идентификатор : 189 (0xBD)-130 (0x82)
    Формат : AC-3
    Формат/Информация : Audio Coding 3
    Параметр Endianness формата : Big
    Режим смешивания : DVD-Video
    Продолжительность : 32 м. 43 с.
    Вид битрейта : Постоянный
    Битрейт : 384 Кбит/сек
    Каналы : 6 каналов
    Расположение каналов : Front: L C R, Side: L R, LFE
    Частота : 48, 0 КГц
    Частота кадров : 31, 250 кадров/сек (1536 SPF)
    Битовая глубина : 16 бит
    Метод сжатия : С потерями
    Задержка видео : -680 мс.
    Размер потока : 89, 9 Мбайт (9%)
    ServiceKind/String : Complete Main
    Текст #1
    Идентификатор : 189 (0xBD)-32 (0x20)
    Формат : RLE
    Формат/Информация : Run-length encoding
    Режим смешивания : DVD-Video
    Продолжительность : 32 м. 38 с.
    Задержка видео : 2 с. 760 мс.
    Текст #2
    Идентификатор : 189 (0xBD)-33 (0x21)
    Формат : RLE
    Формат/Информация : Run-length encoding
    Режим смешивания : DVD-Video
    Продолжительность : 32 м. 38 с.
    Задержка видео : 2 с. 760 мс.
    Текст #3
    Идентификатор : 189 (0xBD)-34 (0x22)
    Формат : RLE
    Формат/Информация : Run-length encoding
    Режим смешивания : DVD-Video
    Продолжительность : 32 м. 37 с.
    Задержка видео : 3 с. 240 мс.
    Текст #4
    Идентификатор : 189 (0xBD)-35 (0x23)
    Формат : RLE
    Формат/Информация : Run-length encoding
    Режим смешивания : DVD-Video
    Продолжительность : 32 м. 38 с.
    Задержка видео : 2 с. 720 мс.
    Текст #5
    Идентификатор : 189 (0xBD)-36 (0x24)
    Формат : RLE
    Формат/Информация : Run-length encoding
    Режим смешивания : DVD-Video
    Продолжительность : 32 м. 38 с.
    Задержка видео : 2 с. 640 мс.
    Текст #6
    Идентификатор : 189 (0xBD)-37 (0x25)
    Формат : RLE
    Формат/Информация : Run-length encoding
    Режим смешивания : DVD-Video
    Продолжительность : 32 м. 38 с.
    Задержка видео : 2 с. 720 мс.
    Текст #7
    Идентификатор : 189 (0xBD)-38 (0x26)
    Формат : RLE
    Формат/Информация : Run-length encoding
    Режим смешивания : DVD-Video
    Продолжительность : 32 м. 38 с.
    Задержка видео : 2 с. 720 мс.
    Текст #8
    Идентификатор : 189 (0xBD)-39 (0x27)
    Формат : RLE
    Формат/Информация : Run-length encoding
    Режим смешивания : DVD-Video
    Продолжительность : 32 м. 38 с.
    Задержка видео : 2 с. 680 мс.
    Текст #9
    Идентификатор : 189 (0xBD)-40 (0x28)
    Формат : RLE
    Формат/Информация : Run-length encoding
    Режим смешивания : DVD-Video
    Продолжительность : 32 м. 37 с.
    Задержка видео : 2 с. 880 мс.
    Текст #10
    Идентификатор : 189 (0xBD)-41 (0x29)
    Формат : RLE
    Формат/Информация : Run-length encoding
    Режим смешивания : DVD-Video
    Продолжительность : 32 м. 38 с.
    Задержка видео : 2 с. 640 мс.
    Текст #11
    Идентификатор : 189 (0xBD)-42 (0x2A)
    Формат : RLE
    Формат/Информация : Run-length encoding
    Режим смешивания : DVD-Video
    Продолжительность : 32 м. 38 с.
    Задержка видео : 2 с. 680 мс.
    Текст #12
    Идентификатор : 189 (0xBD)-43 (0x2B)
    Формат : RLE
    Формат/Информация : Run-length encoding
    Режим смешивания : DVD-Video
    Продолжительность : 32 м. 38 с.
    Задержка видео : 2 с. 760 мс.
    Меню


    Онлайн видео Люди в черном: Интернэшнл


    Прямая ссылка скачивания через uTorrent


    Люди в черном: Интернэшнл/Men in Black International (2019) DVD5 [Custom]
    Рейтинг →
     (голосов: 1, оценка 5/5, голосовать можно 1 раз )

    Другие торренты по теме:

  • Люди в черном / Men in Black (1997) WEB-DL [H.265 / 2160p-LQ] скачать через торрент бесплатно
  • Люди в черном 3 / Men in Black 3 (2012) WEB-DL [H.265 / 2160p-LQ] скачать через торрент бесплатно
  • Люди в черном 2 / Men in Black II (2002)WEB-DL [H.265 / 2160p-LQ] скачать через торрент бесплатно
  • Люди в черном 3 / Men in Black III (2012) WEB-DLRip [H.264 / 2160p-LQ] скачать через торрент бесплатно
  • Люди в черном 2 / Men in Black II (2002) WEB-DLRip [H.264 / 2160p-LQ] скачать через торрент бесплатно
  • Люди в черном: Трилогия / Men in Black: Trilogy (1997, 2002, 2012) HDRip [H.264] [MP4|960х528] скачать через торрент бесплатно
  • Люди в Черном / Men in Black (1997) [MP3|320 кб / с]<OST> скачать через торрент бесплатно
  • Люди в черном / Men in Black (1997) BDRip [H.264 / 1080p-LQ]


    • Комментарии (0):

      Информация

      Информация

        Посетители, находящиеся в группе Гости, не могут оставлять комментарии в данной новости.

        ↓ Меню




        ↓ Опрос

        Вы добавили сайт в закладки?
        Да
        Нет


        Популярное