.
Авторизация | Регистрация

bitok.xyz

» » Полный отсчёт / Full Count (2019) WEB-DLRip [H.264 / 720p-LQ] [MVO] [AD] торрент скачать бесплатно


    Полный отсчёт / Full Count (2019) WEB-DLRip [H.264 / 720p-LQ] [MVO] [AD] торрент скачать бесплатно

    Дата: 27-10-2019, 05:00 | .torrent скачали: 0

    Полный отсчёт / Full Count (2019) WEB-DLRip [H.264 / 720p-LQ] [MVO] [AD]Производство: США/Buckhead Film Group, Reel One Entertainment Worldwide
    Жанр: Фэнтези, драма
    Режиссер: Robert Eagar

    Актеры
    John Paul Kakos, Наталия Ливингстон, Э. Роджер Митчелл, Рик Хёрст, Джейсон Лондон, Виктория Стейли, Адам Бойер, Triston Dye, Мэри Крафт, Jake Levin

    Описание

    Череда несчастных событий вынуждает Милтона отказаться от своей мечты играть в бейсбол и вернуться домой в город, откуда он изо всех сил пытался сбежать. Оказавшись дома, Милтон сталкивается с разными трудностями, одна из которых может отправить его в тюрьму на всю жизнь.

    Дата мировой премьеры: 25 октября 2019
    Продолжительность: 01: 50: 12
    Качество видео: WEB-DLRip
    Перевод: Многоголосый закадровый, любительский (AlphaProject)
    Субтитры: Отсутствуют
    Реклама: Присутствует баннер.
    Видео: AVC/H.264, 1280x544, ~5270 Kbps
    Аудио: AC-3, 2 ch, 384 Kbps
    Общее
    Уникальный идентификатор : 174304478864860520602384891907579958834 (0x8321D24FB3DB9765852DB585C661D632)
    Полное имя : D: NNMПолный отсчётFull.Count.2019.WEB-DLRip.720p-LQ.mkv
    Формат : Matroska
    Версия формата : Version 4
    Размер файла : 4, 44 Гбайт
    Продолжительность : 1 ч. 50 м.
    Режим общего битрейта : Переменный
    Общий поток : 5768 Кбит/сек
    Дата кодирования : UTC 2019-10-26 07: 01: 15
    Программа кодирования : mkvmerge v6.9.1 (\'Blue Panther\') 32bit built on Apr 18 2014 18: 15: 44
    Библиотека кодирования : libebml v1.3.0 + libmatroska v1.4.1
    Видео
    Идентификатор : 1
    Формат : AVC
    Формат/Информация : Advanced Video Codec
    Профиль формата : High@L4.1
    Настройки формата : CABAC/4 Ref Frames
    Параметр CABAC формата : Да
    Параметр RefFrames формата : 4 кадра
    Идентификатор кодека : V_MPEG4/ISO/AVC
    Продолжительность : 1 ч. 50 м.
    Вид битрейта : Переменный
    Битрейт : 5270 Кбит/сек
    Номинальный битрейт : 6000 Кбит/сек
    Максимальный битрейт : 6000 Кбит/сек
    Ширина : 1280 пикселей
    Высота : 544 пикселя
    Соотношение сторон : 2, 35: 1
    Режим частоты кадров : Постоянный
    Частота кадров : 23, 976 (24000/1001) кадра/сек
    Стандарт вещания : Component
    Цветовое пространство : YUV
    Субдискретизация насыщенности : 4: 2: 0
    Битовая глубина : 8 бит
    Тип развёртки : Прогрессивная
    Бит/(Пиксели*Кадры) : 0.316
    Размер потока : 4, 06 Гбайт (91%)
    Default : Нет
    Forced : Нет
    Цветовой диапазон : Limited
    Основные цвета : BT.709
    Характеристики трансфера : BT.709
    Коэффициенты матрицы : BT.709
    Аудио
    Идентификатор : 2
    Формат : AC-3
    Формат/Информация : Audio Coding 3
    Коммерческое название : Dolby Digital
    Идентификатор кодека : A_AC3
    Продолжительность : 1 ч. 50 м.
    Вид битрейта : Постоянный
    Битрейт : 384 Кбит/сек
    Каналы : 2 канала
    ChannelLayout : L R
    Частота : 48, 0 КГц
    Частота кадров : 31, 250 кадров/сек (1536 SPF)
    Битовая глубина : 16 бит
    Метод сжатия : С потерями
    Размер потока : 303 Мбайт (7%)
    Язык : Russian
    ServiceKind/String : Complete Main
    Default : Да
    Forced : Нет

    Скриншоты для ознакомления



    Все одноименные релизы в Клубе Время раздачи: 24/7 (до появления первых 3-5 скачавших)

    Онлайн видео Полный отсчёт



    Полный отсчёт/Full Count (2019) WEB-DLRip [H.264/720p-LQ] [MVO] [AD]
    Рейтинг →
     (голосов: 1, оценка 3/5, голосовать можно 1 раз )

    Другие торренты по теме:

  • Полный отсчёт / Full Count (2019) WEB-DLRip [MVO] [AD]


    • Комментарии (0):

      Информация

      Информация

        Посетители, находящиеся в группе Гости, не могут оставлять комментарии в данной новости.

        ↓ Меню




        ↓ Опрос

        Вы добавили сайт в закладки?
        Да
        Нет


        Популярное