.
Авторизация | Регистрация

bitok.xyz

» » Дом, который построил Джек / The House That Jack Built (2018) DVD5 [Custom] торрент скачать бесплатно


    Дом, который построил Джек / The House That Jack Built (2018) DVD5 [Custom] торрент скачать бесплатно

    Дата: 27-10-2019, 05:00 | .torrent скачали: 0

    Дом, который построил Джек / The House That Jack Built (2018) DVD5 [Custom]Производство: Дания, Франция, Швеция, Германия, Бельгия/Zentropa Entertainments, Centre National du Cinéma et de l\'Image, Copenhagen Film Fund
    Жанр: Ужасы, драма, криминал
    Режиссер: Ларс фон Триер
    Продюсер: Луиза Вест, Lasse Mucha Andersen, Йонас Баггер

    Актеры
    Мэтт Диллон, Бруно Ганц, Ума Турман, Шиван Фэллон, Софи Гробёль, Райли Кио, Джереми Дэвис, Джек МакКензи, Эдвард Спелирс, Дэвид Бэйли

    Описание

    История серийного убийцы по имени Джек разворачивается в Америке 70-х. За 12 лет блестящей карьеры Джеку встретятся назойливая попутчица, наивная подружка и другие очаровательные в своей глупости жертвы. Пять невероятных, до жути изобретательных и порой до смеха абсурдных убийств, к каждому из которых Джек относится как к настоящему произведению искусства.

    Возраст: 18+ (зрителям, достигшим 18 лет. запрещено для детей)
    Рейтинг MPAA: R (лицам до 17 лет обязательно присутствие взрослого)
    Дата мировой премьеры: 14 мая 2018
    Дата российской премьеры: 6 декабря 2018, Russian World Vision, A-One Films

    Продолжительность: 02: 26: 04
    Качество видео: DVD5
    Перевод: Дублированный (лицензия)
    Субтитры: Русские
    Видео: MPEG-2, 720x576@1024x576 (PAL 16: 9), ~3300 Kbps
    Аудио 1: AC3 5.1, 448 Kbps (Русский - дублированный)
    Аудио 2: AC3 5.1, 448 Kbps (Английский - оригинал)Title: The House That Jack Built (2018) DVD5
    Size: 4.36 Gb ( 4 568 534, 00 KBytes ) - DVD-5
    Enabled regions: 1, 2, 3, 4, 5, 6, 7, 8
    VTS_01 :
    Play Length: 00: 00: 00
    Video: PAL 4: 3 (720x576) VBR
    Audio:
    Not specified (Dolby AC3, 2 ch)
    VTS_02 :
    Play Length: 02: 26: 04
    Video: PAL 16: 9 (720x576) VBR, Auto Letterboxed
    Audio:
    Russian, AC3, 3/2 (L, C, R, SL, SR)+LFE ch, 448 kbps, Delay 0 mSec
    English, AC3, 3/2 (L, C, R, SL, SR)+LFE ch, 448 kbps, Delay 0 mSec
    Subtitles:
    RussianОбщее
    Полное имя : F: The House That Jack Built (2018) DVD5VIDEO_TSVTS_02_1.VOB
    Формат : MPEG-PS
    Размер файла : 1024 Мбайт
    Продолжительность : 33 м. 25 с.
    Режим общего битрейта : Переменный
    Общий поток : 4283 Кбит/сек
    Видео
    Идентификатор : 224 (0xE0)
    Формат : MPEG Video
    Версия формата : Version 2
    Профиль формата : Main@Main
    Настройки формата : CustomMatrix/BVOP
    Параметр BVOP формата : Да
    Параметр матрицы формата : Выборочная
    Параметр GOP формата : M=3, N=12
    Продолжительность : 33 м. 25 с.
    Вид битрейта : Переменный
    Битрейт : 3302 Кбит/сек
    Максимальный битрейт : 5347 Кбит/сек
    Ширина : 720 пикселей
    Высота : 576 пикселей
    Соотношение сторон : 16: 9
    Частота кадров : 25, 000 кадров/сек
    Стандарт вещания : PAL
    Цветовое пространство : YUV
    Субдискретизация насыщенности : 4: 2: 0
    Битовая глубина : 8 бит
    Тип развёртки : Прогрессивная
    Порядок развёртки : Нижнее поле первое
    Метод сжатия : С потерями
    Бит/(Пиксели*Кадры) : 0.318
    Временной код первого кадра : 00: 00: 00: 00
    Оригинал временного кода : Group of pictures t_head
    GOP, открыто/закрыто : Открыто
    GOP, открыто/закрыто на первом кадре : Закрыто
    Размер потока : 789 Мбайт (77%)
    Аудио #1
    Идентификатор : 189 (0xBD)-128 (0x80)
    Формат : AC-3
    Формат/Информация : Audio Coding 3
    Параметр Endianness формата : Big
    Режим смешивания : DVD-Video
    Продолжительность : 33 м. 25 с.
    Вид битрейта : Постоянный
    Битрейт : 448 Кбит/сек
    Каналы : 6 каналов
    Расположение каналов : Front: L C R, Side: L R, LFE
    Частота : 48, 0 КГц
    Частота кадров : 31, 250 кадров/сек (1536 SPF)
    Битовая глубина : 16 бит
    Метод сжатия : С потерями
    Размер потока : 107 Мбайт (10%)
    ServiceKind/String : Complete Main
    Аудио #2
    Идентификатор : 189 (0xBD)-129 (0x81)
    Формат : AC-3
    Формат/Информация : Audio Coding 3
    Параметр Endianness формата : Big
    Режим смешивания : DVD-Video
    Продолжительность : 33 м. 25 с.
    Вид битрейта : Постоянный
    Битрейт : 448 Кбит/сек
    Каналы : 6 каналов
    Расположение каналов : Front: L C R, Side: L R, LFE
    Частота : 48, 0 КГц
    Частота кадров : 31, 250 кадров/сек (1536 SPF)
    Битовая глубина : 16 бит
    Метод сжатия : С потерями
    Размер потока : 107 Мбайт (10%)
    ServiceKind/String : Complete Main
    Текст #1
    Идентификатор : 189 (0xBD)-32 (0x20)
    Формат : RLE
    Формат/Информация : Run-length encoding
    Режим смешивания : DVD-Video
    Продолжительность : 33 м. 3 с.
    Задержка видео : 16 с. 360 мс.
    Текст #2
    Идентификатор : 189 (0xBD)-33 (0x21)
    Формат : RLE
    Формат/Информация : Run-length encoding
    Режим смешивания : DVD-Video
    Продолжительность : 33 м. 3 с.
    Задержка видео : 16 с. 360 мс.
    Меню


    Онлайн видео Дом, который построил Джек



    Дом, который построил Джек/The House That Jack Built (2018) DVD5 [Custom]
    Рейтинг →
     (голосов: 1, оценка 4/5, голосовать можно 1 раз )

    Другие торренты по теме:

  • Дом, который построил Свифт (1982) DVDRip [H.264] скачать через торрент бесплатно
  • Роберт Асприн, Линда Эванс | Дом, который построил Джек (2016) [MP3]
  • Чертово Колесо Инженера Ферриса - Дом который построил Jerk (2015) [FLAC|Lossless|tracks + .cue] <Power-Pop, Dance-Punk, Horror-Electro>
  • Дом, который построил Свифт (1982) DVD9
  • Дом, который построил Джек / The House That Jack Built (2018) WEB-DLRip [Звук с TS, AD]
  • Дом, который построил Джек / The House That Jack Built (2018) WEBRip [EN / RU Sub]
  • Дом, который построил Джек / The House That Jack Built (2018) WEB-DLRip [H.264 / 1080p-LQ] [EN / RU, EN SUB]
  • Дом, который построил Джек / The House That Jack Built (2018) WEB-DLRip [H.264 / 1080p-LQ] [MVO AD]


    • Комментарии (0):

      Информация

      Информация

        Посетители, находящиеся в группе Гости, не могут оставлять комментарии в данной новости.

        ↓ Меню




        ↓ Опрос

        Вы добавили сайт в закладки?
        Да
        Нет


        Популярное