.
Авторизация | Регистрация

bitok.xyz

» » Тьма / The Dark (2018) BDRip [H.264] [MVO] торрент скачать бесплатно


    Тьма / The Dark (2018) BDRip [H.264] [MVO] торрент скачать бесплатно

    Дата: 27-10-2019, 05:00 | .torrent скачали: 0

    Тьма / The Dark (2018) BDRip [H.264] [MVO]Производство: Австрия/Dor Film Produktionsgesellschaft, First Love Films
    Жанр: Драма, ужасы
    Режиссер: Джастин П. Ланж

    Актеры
    Надя Александр, Тоби Николс, Карл Маркович, Сара Мерфи-Дайсон, Дэн Бирн, Маргарете Тизель, Дилан Троубридж, Скотт Боуден, Крис Фаркуар, Джон Блэквуд

    Описание

    Разыскиваемый по всей стране преступник пытается скрыться в одиноко стоящем доме в лесу, но вместо тишины и покоя его настигает топор прямо в лоб и девушка-нежить. Её зовут Мина, и, перекусив убитым, в его машине она обнаруживает затюканного слепого парня, которого решает не убивать.

    Дата мировой премьеры: 12 октября 2018
    Продолжительность: 01: 34: 44
    Качество видео: BDRip (AVC)
    Перевод: Многоголосый закадровый, профессиональный (HDrezka Studio)
    Субтитры: Английские (Full)
    Видео: AVC/H.264, 1024x432, ~1796 Kbps
    Аудио #1: AC3, 2 ch, 192 Kbps - Русский
    Аудио #2: AC3, 6 ch, 448 Kbps - Английский
    Общее
    Уникальный идентификатор : 281195214390998902465202112087849777859 (0xD38C3A75E48E6A3F8B73458B8B7D3AC3)
    Полное имя : D: NNMТьмаThe.Dark.2018.BDRip.AVC.mkv
    Формат : Matroska
    Версия формата : Version 4
    Размер файла : 1, 61 Гбайт
    Продолжительность : 1 ч. 34 м.
    Общий поток : 2434 Кбит/сек
    Дата кодирования : UTC 2019-10-02 13: 45: 46
    Программа кодирования : mkvmerge v29.0.0 (\'Like It Or Not\') 64-bit
    Библиотека кодирования : libebml v1.3.6 + libmatroska v1.4.9
    Видео
    Идентификатор : 1
    Формат : AVC
    Формат/Информация : Advanced Video Codec
    Профиль формата : High@L4.1
    Настройки формата : CABAC/10 Ref Frames
    Параметр CABAC формата : Да
    Параметр RefFrames формата : 10 кадров
    Идентификатор кодека : V_MPEG4/ISO/AVC
    Продолжительность : 1 ч. 34 м.
    Битрейт : 1796 Кбит/сек
    Ширина : 1024 пикселя
    Высота : 432 пикселя
    Соотношение сторон : 2, 40: 1
    Режим частоты кадров : Постоянный
    Частота кадров : 23, 976 (24000/1001) кадра/сек
    Цветовое пространство : YUV
    Субдискретизация насыщенности : 4: 2: 0
    Битовая глубина : 8 бит
    Тип развёртки : Прогрессивная
    Бит/(Пиксели*Кадры) : 0.169
    Размер потока : 1, 19 Гбайт (74%)
    Библиотека кодирования : x264 core 146 r2538 121396c
    Настройки программы : cabac=1/ref=10/deblock=1: -3: -3/analyse=0x3: 0x113/me=umh/subme=11/psy=1/psy_rd=1.00: 0.03/mixed_ref=1/me_range=48/chroma_me=1/trellis=2/8x8dct=1/cqm=0/deadzone=21, 11/fast_pskip=1/chroma_qp_offset=-6/threads=6/lookahead_threads=1/sliced_threads=0/nr=0/decimate=1/interlaced=0/bluray_compat=0/constrained_intra=0/bframes=11/b_pyramid=2/b_adapt=2/b_bias=0/direct=3/weightb=1/open_gop=0/weightp=2/keyint=240/keyint_min=23/scenecut=40/intra_refresh=0/rc_lookahead=40/rc=2pass/mbtree=0/bitrate=1796/ratetol=1.0/qcomp=0.60/qpmin=0/qpmax=69/qpstep=4/cplxblur=20.0/qblur=0.5/vbv_maxrate=50000/vbv_bufsize=62500/nal_hrd=none/filler=0/ip_ratio=1.40/pb_ratio=1.30/aq=1: 1.00
    Язык : English
    Default : Да
    Forced : Нет
    Аудио #1
    Идентификатор : 2
    Формат : AC-3
    Формат/Информация : Audio Coding 3
    Коммерческое название : Dolby Digital
    Идентификатор кодека : A_AC3
    Продолжительность : 1 ч. 34 м.
    Вид битрейта : Постоянный
    Битрейт : 192 Кбит/сек
    Каналы : 2 канала
    ChannelLayout : L R
    Частота : 48, 0 КГц
    Частота кадров : 31, 250 кадров/сек (1536 SPF)
    Битовая глубина : 16 бит
    Метод сжатия : С потерями
    Размер потока : 130 Мбайт (8%)
    Заголовок : MVO HDrezka Studio
    Язык : Russian
    ServiceKind/String : Complete Main
    Default : Да
    Forced : Нет
    Аудио #2
    Идентификатор : 3
    Формат : AC-3
    Формат/Информация : Audio Coding 3
    Коммерческое название : Dolby Digital
    Идентификатор кодека : A_AC3
    Продолжительность : 1 ч. 34 м.
    Вид битрейта : Постоянный
    Битрейт : 448 Кбит/сек
    Каналы : 6 каналов
    ChannelLayout : L R C LFE Ls Rs
    Частота : 48, 0 КГц
    Частота кадров : 31, 250 кадров/сек (1536 SPF)
    Битовая глубина : 16 бит
    Метод сжатия : С потерями
    Размер потока : 304 Мбайт (18%)
    Заголовок : Original
    Язык : English
    ServiceKind/String : Complete Main
    Default : Нет
    Forced : Нет
    Текст
    Идентификатор : 4
    Формат : UTF-8
    Идентификатор кодека : S_TEXT/UTF8
    Идентификатор кодека/Информация : UTF-8 Plain Text
    Продолжительность : 1 ч. 29 м.
    Битрейт : 18 бит/сек
    ElementCount : 513
    Размер потока : 12, 3 Кбайт (0%)
    Заголовок : Full
    Язык : English
    Default : Нет
    Forced : Нет
    Меню
    00: 00: 00.000 : en: Chapter 1
    00: 09: 08.047 : en: Chapter 2
    00: 22: 52.871 : en: Chapter 3
    00: 37: 09.227 : en: Chapter 4
    00: 51: 26.583 : en: Chapter 5
    01: 03: 31.808 : en: Chapter 6
    01: 16: 32.087 : en: Chapter 7
    01: 27: 45.260 : en: Chapter 8

    Скриншоты для ознакомления



    Все одноименные релизы в Клубе Время раздачи: 24/7 (до появления первых 3-5 скачавших)

    Онлайн видео Тьма



    Тьма/The Dark (2018) BDRip [H.264] [MVO]
    Рейтинг →
     (голосов: 1, оценка 4/5, голосовать можно 1 раз )

    Другие торренты по теме:

  • Тьма / Dark (2017) WEBRip [H.264 / 720p-LQ] (сезон 1, серии 1-10 из 10) ColdFilm [AD]
  • Тьма / Dark (2017) WEBRip (сезон 1, серии 1-2 из 10) NewStudio (обновляемая)
  • Тьма / Dark (2017) WEBRip [H.264 / 1080p-LQ] (сезон 1, серии 1-2 из 10) NewStudio (обновляемая)
  • Тьма / Dark (2017) WEB-DLRip [H.264 / 1080p-LQ] (сезон 1, серии 1-10 из 10) IdeaFilm [AD]
  • Тьма / Dark (2017) WEBRip [H.264 / 720p-LQ] (сезон 1, серии 1-10 из 10) AMS [AD]
  • Тьма / Dark (2019) WEBRip [H.264 / 1080p-LQ] (сезон 2, серии 1-8 из 8) NewStudio
  • Sugar Dark: Umerareta Yami to Shoujo / Sugar Dark: The Girl Buried in Darkness / Сладкая тьма: Девушка в погребальном мраке (2009) [1 том] [Ранобэ] [Русский] [Завершено] скачать через торрент бесплатно
  • Тьма была ночью / Dark Was the Night (2014) WEB-DL [H.264 / 720p-LQ] скачать через торрент бесплатно


    • Комментарии (0):

      Информация

      Информация

        Посетители, находящиеся в группе Гости, не могут оставлять комментарии в данной новости.

        ↓ Меню




        ↓ Опрос

        Вы добавили сайт в закладки?
        Да
        Нет


        Популярное