.
Авторизация | Регистрация

bitok.xyz

» » Последствия / The Aftermath (2019) DVD5 [Custom] торрент скачать бесплатно


    Последствия / The Aftermath (2019) DVD5 [Custom] торрент скачать бесплатно

    Дата: 27-10-2019, 05:00 | .torrent скачали: 0

    Последствия / The Aftermath (2019) DVD5 [Custom]Производство: Германия, Великобритания, США/Fox Searchlight Pictures, Amusement Park Films, Scott Free Productions
    Жанр: Драма, мелодрама, военный
    Режиссер: Джеймс Кент
    Продюсер: Джек Арбутнотт, Клаус Доле, Карло Дуси

    Актеры
    Кира Найтли, Александр Скарсгард, Джейсон Кларк, Фионн О’Ши, Кейт Филлипс, Мартин Компстон, Александр Шеер, Анна Катарина Шримригк, Нед Виллс, Пандора Колин

    Описание

    Германия после Второй мировой войны. В стране беспорядок, разруха, голод. Главный герой — британский военный Льюис Морган, который назначен временным мэром Гамбурга. Ему предстоит восстанавливать город почти с нуля. Вместе с женой Льюис селится в роскошный особняк, где живет немецкий архитектор с эмоционально нестабильной дочерью. Смогут ли бывшие враги ужиться под одной крышей или желание отомстить будет сильнее?

    Возраст: 18+ (зрителям, достигшим 18 лет. запрещено для детей)
    Рейтинг MPAA: R (лицам до 17 лет обязательно присутствие взрослого)
    Дата мировой премьеры: 26 февраля 2019
    Дата российской премьеры: 25 апреля 2019, Двадцатый Век Фокс СНГ

    Продолжительность: 01: 44: 11
    Качество видео: DVD5
    Перевод: Дублированный (лицензия)
    Субтитры: Русские, английские, датские, финские, норвежские, шведские, эстонские, хинди, латышские, литовские, украинские
    Видео: MPEG-2, 720x576@1024x576 (PAL 16: 9), ~5100 Kbps
    Аудио 1: AC3 5.1, 448 Kbps (Английский - оригинал)
    Аудио 2: AC3 5.1, 384 Kbps (Русский - дублированный)Title: The Aftermath (2019) DVD5
    Size: 4.35 Gb ( 4 561 620, 00 KBytes ) - DVD-5
    Enabled regions: 1, 2, 3, 4, 5, 6, 7, 8
    VTS_01 :
    Play Length: 00: 00: 01+01: 44: 11
    Video: PAL 16: 9 (720x576) VBR, Auto Letterboxed
    Audio:
    English, AC3, 3/2 (L, C, R, SL, SR)+LFE ch, 448 kbps, Delay -49 mSec
    Russian, AC3, 3/2 (L, C, R, SL, SR)+LFE ch, 384 kbps, Delay -49 mSec
    Subtitles:
    English
    Dansk
    Suomi
    Norsk
    Russian
    Svenska
    Estonian
    Hindi
    Latvian
    Lithuanian
    Ukrainian
    English
    Russian
    Hindi
    Ukrainian
    English
    Dansk
    Suomi
    Norsk
    Russian
    SvenskaОбщее
    Полное имя : F: The Aftermath (2019) DVD5VIDEO_TSVTS_01_1.VOB
    Формат : MPEG-PS
    Размер файла : 1024 Мбайт
    Продолжительность : 23 м. 42 с.
    Режим общего битрейта : Переменный
    Общий поток : 6039 Кбит/сек
    Видео
    Идентификатор : 224 (0xE0)
    Формат : MPEG Video
    Версия формата : Version 2
    Профиль формата : Main@Main
    Настройки формата : CustomMatrix/BVOP
    Параметр BVOP формата : Да
    Параметр матрицы формата : Выборочная
    Параметр GOP формата : Variable
    Продолжительность : 23 м. 42 с.
    Вид битрейта : Переменный
    Битрейт : 5087 Кбит/сек
    Ширина : 720 пикселей
    Высота : 576 пикселей
    Соотношение сторон : 16: 9
    Частота кадров : 25, 000 кадров/сек
    Стандарт вещания : PAL
    Цветовое пространство : YUV
    Субдискретизация насыщенности : 4: 2: 0
    Битовая глубина : 8 бит
    Тип развёртки : Прогрессивная
    Порядок развёртки : Верхнее поле первое
    Метод сжатия : С потерями
    Бит/(Пиксели*Кадры) : 0.491
    Временной код первого кадра : 00: 00: 00: 00
    Оригинал временного кода : Group of pictures t_head
    Размер потока : 863 Мбайт (84%)
    Аудио #1
    Идентификатор : 189 (0xBD)-128 (0x80)
    Формат : AC-3
    Формат/Информация : Audio Coding 3
    Параметр Endianness формата : Big
    Режим смешивания : DVD-Video
    Продолжительность : 23 м. 42 с.
    Вид битрейта : Постоянный
    Битрейт : 448 Кбит/сек
    Каналы : 6 каналов
    Расположение каналов : Front: L C R, Side: L R, LFE
    Частота : 48, 0 КГц
    Частота кадров : 31, 250 кадров/сек (1536 SPF)
    Битовая глубина : 16 бит
    Метод сжатия : С потерями
    Задержка видео : -50 мс.
    Размер потока : 75, 9 Мбайт (7%)
    ServiceKind/String : Complete Main
    Аудио #2
    Идентификатор : 189 (0xBD)-130 (0x82)
    Формат : AC-3
    Формат/Информация : Audio Coding 3
    Параметр Endianness формата : Big
    Режим смешивания : DVD-Video
    Продолжительность : 23 м. 42 с.
    Вид битрейта : Постоянный
    Битрейт : 384 Кбит/сек
    Каналы : 6 каналов
    Расположение каналов : Front: L C R, Side: L R, LFE
    Частота : 48, 0 КГц
    Частота кадров : 31, 250 кадров/сек (1536 SPF)
    Битовая глубина : 16 бит
    Метод сжатия : С потерями
    Задержка видео : -50 мс.
    Размер потока : 65, 1 Мбайт (6%)
    ServiceKind/String : Complete Main
    Текст #1
    Идентификатор : 189 (0xBD)-32 (0x20)
    Формат : RLE
    Формат/Информация : Run-length encoding
    Режим смешивания : DVD-Video
    Продолжительность : 23 м. 37 с.
    Задержка видео : 3 с. 910 мс.
    Текст #2
    Идентификатор : 189 (0xBD)-47 (0x2F)
    Формат : RLE
    Формат/Информация : Run-length encoding
    Режим смешивания : DVD-Video
    Продолжительность : 23 м. 36 с.
    Задержка видео : 4 с. 30 мс.
    Текст #3
    Идентификатор : 189 (0xBD)-33 (0x21)
    Формат : RLE
    Формат/Информация : Run-length encoding
    Режим смешивания : DVD-Video
    Текст #4
    Идентификатор : 189 (0xBD)-34 (0x22)
    Формат : RLE
    Формат/Информация : Run-length encoding
    Режим смешивания : DVD-Video
    Текст #5
    Идентификатор : 189 (0xBD)-35 (0x23)
    Формат : RLE
    Формат/Информация : Run-length encoding
    Режим смешивания : DVD-Video
    Текст #6
    Идентификатор : 189 (0xBD)-36 (0x24)
    Формат : RLE
    Формат/Информация : Run-length encoding
    Режим смешивания : DVD-Video
    Текст #7
    Идентификатор : 189 (0xBD)-37 (0x25)
    Формат : RLE
    Формат/Информация : Run-length encoding
    Режим смешивания : DVD-Video
    Текст #8
    Идентификатор : 189 (0xBD)-38 (0x26)
    Формат : RLE
    Формат/Информация : Run-length encoding
    Режим смешивания : DVD-Video
    Текст #9
    Идентификатор : 189 (0xBD)-39 (0x27)
    Формат : RLE
    Формат/Информация : Run-length encoding
    Режим смешивания : DVD-Video
    Текст #10
    Идентификатор : 189 (0xBD)-40 (0x28)
    Формат : RLE
    Формат/Информация : Run-length encoding
    Режим смешивания : DVD-Video
    Текст #11
    Идентификатор : 189 (0xBD)-41 (0x29)
    Формат : RLE
    Формат/Информация : Run-length encoding
    Режим смешивания : DVD-Video
    Текст #12
    Идентификатор : 189 (0xBD)-42 (0x2A)
    Формат : RLE
    Формат/Информация : Run-length encoding
    Режим смешивания : DVD-Video
    Текст #13
    Идентификатор : 189 (0xBD)-48 (0x30)
    Формат : RLE
    Формат/Информация : Run-length encoding
    Режим смешивания : DVD-Video
    Текст #14
    Идентификатор : 189 (0xBD)-49 (0x31)
    Формат : RLE
    Формат/Информация : Run-length encoding
    Режим смешивания : DVD-Video
    Текст #15
    Идентификатор : 189 (0xBD)-50 (0x32)
    Формат : RLE
    Формат/Информация : Run-length encoding
    Режим смешивания : DVD-Video
    Текст #16
    Идентификатор : 189 (0xBD)-51 (0x33)
    Формат : RLE
    Формат/Информация : Run-length encoding
    Режим смешивания : DVD-Video
    Текст #17
    Идентификатор : 189 (0xBD)-52 (0x34)
    Формат : RLE
    Формат/Информация : Run-length encoding
    Режим смешивания : DVD-Video
    Меню


    Онлайн видео Последствия



    Последствия/The Aftermath (2019) DVD5 [Custom]
    Рейтинг →
     (голосов: 1, оценка 3/5, голосовать можно 1 раз )

    Другие торренты по теме:

  • NG: Последствия / Aftermath (2008-2010) HDTV [H.264 / 1080i] (серии 2-5 из 5)
  • Жизнь после / Последствия / Aftermath (2016) HDTVRip [H.264 / 720p-LQ] (сезон 1, серии 1-6 из 13) Jaskier (обновляемая)
  • Последствия / Aftermath (2017) WEB-DLRip [H.264 / 1080p-LQ] [AD]
  • Последствия / Aftermath (2017) WEB-DLRip [Звук с TS] [AD]
  • Последствия / Aftermath (2017) WEB-DLRip [AD]
  • Последствия / Aftermath (2017) WEB-DL [H.264 / 1080p-LQ] [EN / EN Sub]
  • Последствия / Aftermath (2017) WEB-DLRip
  • Последствия / Aftermath (2017) WEB-DL [H.264 / 1080p-LQ]


    • Комментарии (0):

      Информация

      Информация

        Посетители, находящиеся в группе Гости, не могут оставлять комментарии в данной новости.

        ↓ Меню




        ↓ Опрос

        Вы добавили сайт в закладки?
        Да
        Нет


        Популярное