.
Авторизация | Регистрация

bitok.xyz

» » Сверх(НЕ)естественное / Extra Ordinary (2019) BDRemux [H.264 / 1080p] торрент скачать бесплатно


    Сверх(НЕ)естественное / Extra Ordinary (2019) BDRemux [H.264 / 1080p] торрент скачать бесплатно

    Дата: 27-10-2019, 05:00 | .torrent скачали: 0

    Сверх(НЕ)естественное / Extra Ordinary (2019) BDRemux [H.264 / 1080p]Производство: Ирландия, Бельгия, Blinder Films, Epic Pictures Group
    Жанр: Комедия, ужасы, фэнтези
    Режиссер: Майк Ахерн, Энда Логман

    Актеры
    Маив Хиггинс, Бэрри Уорд, Уилл Форте, Клаудия О`Доэрти, Джэми Бимиш, Terri Chandler, Ристерд Купер, Emma Coleman, Кэрри Краули, Мэри МакЭвой

    Описание

    Скромная Роуз обладает экстрасенсорными способностями, но соседи достают ее лишь просьбами изгнать духов надоедливых родственников. Однажды в ее родном городке объявляется рок-звезда Кристиан Уинтер. Наделенный дьявольской силой, он околдовывает местную девушку, и ее отец в отчаянии просит Роуз о помощи. У героини появляется шанс раскрыть свой дар, а заодно устроить личную жизнь.

    Возраст: 18+ (зрителям, достигшим 18 лет. запрещено для детей)
    Рейтинг MPAA: R (лицам до 17 лет обязательно присутствие взрослого)
    Дата мировой премьеры: 10 марта 2019
    Дата российской премьеры: 18 октября 2019, Вольга
    Релиз от: Селезень
    Продолжительность: 01: 34: 20
    Качество видео: BDRemux
    Перевод: Дублированный (iTunes )
    Субтитры: Русские
    Видео: AVC/H.264, 1920x1080, ~32, 9 Mbps
    Аудио #1: AC3, 6 ch, 384 Kbps | Русский (DUB)
    Аудио #2: DTS-HD MA, 6 ch, 3528 Kbps | Английский
    Общее
    Уникальный идентификатор : 256431530021246114486745977453177862797 (0xC0EAEA8E6574777FE2D3CFDDBC35FA8D)
    Полное имя : C: UsersSTOTIKDownloadsExtra.Ordinary.2019.BDREMUX.1080p.seleZen.mkv
    Формат : Matroska
    Версия формата : Version 4
    Размер файла : 24, 2 Гбайт
    Продолжительность : 1 ч. 34 м.
    Режим общего битрейта : Переменный
    Общий поток : 36, 8 Мбит/сек
    Название фильма : Extra Ordinary 2019 from селезень
    Дата кодирования : UTC 2019-10-26 09: 39: 05
    Программа кодирования : mkvmerge v22.0.0 (\'At The End Of The World\') 64-bit
    Библиотека кодирования : libebml v1.3.5 + libmatroska v1.4.8
    Видео
    Идентификатор : 1
    Формат : AVC
    Формат/Информация : Advanced Video Codec
    Профиль формата : High@L4.1
    Настройки формата : CABAC/4 Ref Frames
    Параметр CABAC формата : Да
    Параметр RefFrames формата : 4 кадра
    Идентификатор кодека : V_MPEG4/ISO/AVC
    Продолжительность : 1 ч. 34 м.
    Вид битрейта : Переменный
    Битрейт : 32, 9 Мбит/сек
    Максимальный битрейт : 36, 0 Мбит/сек
    Ширина : 1920 пикселей
    Высота : 1080 пикселей
    Соотношение сторон : 16: 9
    Режим частоты кадров : Постоянный
    Частота кадров : 24, 000 кадра/сек
    Цветовое пространство : YUV
    Субдискретизация насыщенности : 4: 2: 0
    Битовая глубина : 8 бит
    Тип развёртки : Прогрессивная
    Бит/(Пиксели*Кадры) : 0.660
    Размер потока : 21, 7 Гбайт (89%)
    Язык : German
    Default : Да
    Forced : Нет
    Аудио #1
    Идентификатор : 2
    Формат : AC-3
    Формат/Информация : Audio Coding 3
    Коммерческое название : Dolby Digital
    Идентификатор кодека : A_AC3
    Продолжительность : 1 ч. 34 м.
    Вид битрейта : Постоянный
    Битрейт : 384 Кбит/сек
    Каналы : 6 каналов
    ChannelLayout : L R C LFE Ls Rs
    Частота : 48, 0 КГц
    Частота кадров : 31, 250 кадров/сек (1536 SPF)
    Битовая глубина : 16 бит
    Метод сжатия : С потерями
    Размер потока : 259 Мбайт (1%)
    Заголовок : iTunes
    Язык : Russian
    ServiceKind/String : Complete Main
    Default : Да
    Forced : Да
    Аудио #2
    Идентификатор : 3
    Формат : DTS XLL
    Формат/Информация : Digital Theater Systems
    Коммерческое название : DTS-HD Master Audio
    Идентификатор кодека : A_DTS
    Продолжительность : 1 ч. 34 м.
    Вид битрейта : Переменный
    Битрейт : 3528 Кбит/сек
    Каналы : 6 каналов
    ChannelLayout : C L R Ls Rs LFE
    Частота : 48, 0 КГц
    Частота кадров : 93, 750 кадра/сек (512 SPF)
    Битовая глубина : 24 бит
    Метод сжатия : Без потерь
    Размер потока : 2, 33 Гбайт (10%)
    Заголовок : Original
    Язык : English
    Default : Нет
    Forced : Нет
    Текст
    Идентификатор : 4
    Формат : UTF-8
    Идентификатор кодека : S_TEXT/UTF8
    Идентификатор кодека/Информация : UTF-8 Plain Text
    Продолжительность : 1 ч. 29 м.
    Битрейт : 118 бит/сек
    ElementCount : 1207
    Размер потока : 77, 3 Кбайт (0%)
    Заголовок : Full
    Язык : Russian
    Default : Нет
    Forced : Нет
    Меню
    00: 00: 00.000 : de: 00: 00: 00.000
    00: 10: 08.542 : de: 00: 10: 08.542
    00: 20: 12.667 : de: 00: 20: 12.667
    00: 28: 46.500 : de: 00: 28: 46.500
    00: 36: 38.958 : de: 00: 36: 38.958
    00: 46: 45.250 : de: 00: 46: 45.250
    00: 57: 59.292 : de: 00: 57: 59.292
    01: 06: 36.542 : de: 01: 06: 36.542
    01: 17: 14.750 : de: 01: 17: 14.750
    01: 28: 53.458 : de: 01: 28: 53.458

    Скриншоты для ознакомления



    Все одноименные релизы в Клубе
    Время раздачи: 24/7 (до появления первых 3-5 скачавших)

    Онлайн видео Сверх(НЕ)естественное



    Сверх(НЕ)естественное/Extra Ordinary (2019) BDRemux [H.264/1080p]
    Рейтинг →
     (голосов: 1, оценка 5/5, голосовать можно 1 раз )

    Другие торренты по теме:

  • Сверх(НЕ)естественное / Extra Ordinary (2019) WEB-DL [H.264 / 1080p-LQ]
  • Сверх(НЕ)естественное / Extra Ordinary (2019) WEB-DLRip
  • Сверх(НЕ)естественное / Extra Ordinary (2019) BDRip [H.265 / 1080p] [10-bit] [PR]
  • Сверх(НЕ)естественное / Extra Ordinary (2019) BDRip [H.265 / 720p] [PR]
  • Сверх(НЕ)естественное / Extra Ordinary (2019) BDRip [H.265] [10-bit]
  • Сверх(НЕ)естественное / Extra Ordinary (2019) BDRip [H.264 / 1080p]


    • Комментарии (0):

      Информация

      Информация

        Посетители, находящиеся в группе Гости, не могут оставлять комментарии в данной новости.

        ↓ Меню




        ↓ Опрос

        Вы добавили сайт в закладки?
        Да
        Нет


        Популярное