.
Авторизация | Регистрация

bitok.xyz

» » Соловей / The Nightingale (2018) WEB-DLRip [MVO] [AD] торрент скачать бесплатно


    Соловей / The Nightingale (2018) WEB-DLRip [MVO] [AD] торрент скачать бесплатно

    Дата: 27-10-2019, 05:00 | .torrent скачали: 1

    Соловей / The Nightingale (2018) WEB-DLRip [MVO] [AD]Производство: Австралия, США, Канада/Causeway Films, Made Up Stories, Adelaide Film Festival
    Жанр: Триллер, драма, приключения
    Режиссер: Дженнифер Кент

    Актеры
    Эшлинг Франчози, Сэм Клафлин, Байкали Ганамбарр, Дэймон Херриман, Гарри Гринвуд, Ивен Лесли, Чарли Шотуэлл, Майкл Шисби, Мэтью Сандерлэнд, Манолья Маймуру

    Описание

    1825 год, Австралия. Молодая ирландка Клэр преследует британских офицеров, чтобы отомстить за убийство мужа и ребёнка. Во время своего путешествия она встречает аборигена Билли, который соглашается ей помочь.

    Возраст: 18+ (зрителям, достигшим 18 лет. запрещено для детей)
    Рейтинг MPAA: R (лицам до 17 лет обязательно присутствие взрослого)
    Дата мировой премьеры: 19 марта 2018
    Продолжительность: 02: 15: 47
    Качество видео: WEB-DLRip
    Перевод: Многоголосый закадровый, профессиональный (Синема УС)
    Субтитры: Отсутствуют
    Реклама: Присутствует баннер.
    Видео: XviD, 720x528, ~1750 Kbps
    Аудио: AC-3, 2 ch, 384 Kbps
    Общее
    Полное имя : D: NNMСоловейThe.Nightingale.2018.WEB-DLRip.avi
    Формат : AVI
    Формат/Информация : Audio Video Interleave
    Профиль формата : OpenDML
    Размер файла : 2, 03 Гбайт
    Продолжительность : 2 ч. 15 м.
    Общий поток : 2145 Кбит/сек
    Видео
    Идентификатор : 0
    Формат : MPEG-4 Visual
    Профиль формата : Advanced Simple@L5
    Настройки формата : BVOP2/Custom Matrix
    Параметр BVOP формата : 2
    Параметр QPel формата : Нет
    Параметр GMC формата : Без точки перехода
    Параметр матрицы формата : Выборочная
    Идентификатор кодека : XVID
    Идентификатор кодека/Подсказка : XviD
    Продолжительность : 2 ч. 15 м.
    Битрейт : 1750 Кбит/сек
    Ширина : 720 пикселей
    Высота : 528 пикселей
    Соотношение сторон : 4: 3
    Частота кадров : 23, 976 (24000/1001) кадра/сек
    Цветовое пространство : YUV
    Субдискретизация насыщенности : 4: 2: 0
    Битовая глубина : 8 бит
    Тип развёртки : Прогрессивная
    Метод сжатия : С потерями
    Бит/(Пиксели*Кадры) : 0.192
    Размер потока : 1, 66 Гбайт (82%)
    Библиотека кодирования : XviD 1.2.1 (UTC 2008-12-04)
    Аудио
    Идентификатор : 1
    Формат : AC-3
    Формат/Информация : Audio Coding 3
    Коммерческое название : Dolby Digital
    Идентификатор кодека : 2000
    Продолжительность : 2 ч. 15 м.
    Вид битрейта : Постоянный
    Битрейт : 384 Кбит/сек
    Каналы : 2 канала
    ChannelLayout : L R
    Частота : 48, 0 КГц
    Частота кадров : 31, 250 кадров/сек (1536 SPF)
    Битовая глубина : 16 бит
    Метод сжатия : С потерями
    Размер потока : 373 Мбайт (18%)
    Выравнивание : Соединение по промежуткам
    Продолжительность промежутка : 32 мс. (0, 77 видеокадр)
    ServiceKind/String : Complete Main

    Скриншоты для ознакомления



    Все одноименные релизы в Клубе Время раздачи: 24/7 (до появления первых 3-5 скачавших)

    Онлайн видео Соловей



    Соловей/The Nightingale (2018) WEB-DLRip [MVO] [AD]
    Рейтинг →
     (голосов: 1, оценка 4/5, голосовать можно 1 раз )

    Другие торренты по теме:

  • Соловей / Nightingale (2015) HDTVRip скачать через торрент бесплатно
  • Соловей / Nightingale (2015) HDTV [H.264 / 1080i] скачать через торрент бесплатно
  • Соловей / The Nightingale (2018) WEB-DLRip [H.264 / 720p-LQ] [MVO] [AD]
  • Соловей / The Nightingale (2018) WEB-DL [H.264 / 1080p] [AVO]


    • Комментарии (0):

      Информация

      Информация

        Посетители, находящиеся в группе Гости, не могут оставлять комментарии в данной новости.

        ↓ Меню




        ↓ Опрос

        Вы добавили сайт в закладки?
        Да
        Нет


        Популярное