.
Авторизация | Регистрация

bitok.xyz

» » Соловей / The Nightingale (2018) WEB-DLRip [H.264 / 720p-LQ] [MVO] [AD] торрент скачать бесплатно


    Соловей / The Nightingale (2018) WEB-DLRip [H.264 / 720p-LQ] [MVO] [AD] торрент скачать бесплатно

    Дата: 27-10-2019, 05:00 | .torrent скачали: 0

    Соловей / The Nightingale (2018) WEB-DLRip [H.264 / 720p-LQ] [MVO] [AD]Производство: Австралия, США, Канада/Causeway Films, Made Up Stories, Adelaide Film Festival
    Жанр: Триллер, драма, приключения
    Режиссер: Дженнифер Кент

    Актеры
    Эшлинг Франчози, Сэм Клафлин, Байкали Ганамбарр, Дэймон Херриман, Гарри Гринвуд, Ивен Лесли, Чарли Шотуэлл, Майкл Шисби, Мэтью Сандерлэнд, Манолья Маймуру

    Описание

    1825 год, Австралия. Молодая ирландка Клэр преследует британских офицеров, чтобы отомстить за убийство мужа и ребёнка. Во время своего путешествия она встречает аборигена Билли, который соглашается ей помочь.

    Возраст: 18+ (зрителям, достигшим 18 лет. запрещено для детей)
    Рейтинг MPAA: R (лицам до 17 лет обязательно присутствие взрослого)
    Дата мировой премьеры: 19 марта 2018
    Продолжительность: 02: 15: 47
    Качество видео: WEB-DLRip
    Перевод: Многоголосый закадровый, профессиональный (Синема УС)
    Субтитры: Отсутствуют
    Реклама: Присутствует баннер.
    Видео: AVC/H.264, 982x720, ~5182 Kbps
    Аудио: AC-3, 2 ch, 384 Kbps
    Общее
    Полное имя : D: NNMСоловейThe.Nightingale.2018.WEB-DLRip.720p-LQ.mkv
    Формат : Matroska
    Версия формата : Version 2
    Размер файла : 5, 39 Гбайт
    Продолжительность : 2 ч. 15 м.
    Режим общего битрейта : Переменный
    Общий поток : 5679 Кбит/сек
    Программа кодирования : libmatroska 1.4.1
    Библиотека кодирования : SolveigMM Matroska Muxer Version 1.0.1502.31
    Видео
    Идентификатор : 1
    Формат : AVC
    Формат/Информация : Advanced Video Codec
    Профиль формата : High@L4.1
    Настройки формата : CABAC/4 Ref Frames
    Параметр CABAC формата : Да
    Параметр RefFrames формата : 4 кадра
    Идентификатор кодека : V_MPEG4/ISO/AVC
    Продолжительность : 2 ч. 15 м.
    Вид битрейта : Переменный
    Битрейт : 5182 Кбит/сек
    Номинальный битрейт : 6000 Кбит/сек
    Максимальный битрейт : 6000 Кбит/сек
    Ширина : 982 пикселя
    Высота : 720 пикселей
    Соотношение сторон : 4: 3
    Режим частоты кадров : Постоянный
    Частота кадров : 23, 976 (24000/1001) кадра/сек
    Стандарт вещания : Component
    Цветовое пространство : YUV
    Субдискретизация насыщенности : 4: 2: 0
    Битовая глубина : 8 бит
    Тип развёртки : Прогрессивная
    Бит/(Пиксели*Кадры) : 0.306
    Размер потока : 4, 92 Гбайт (91%)
    Default : Нет
    Forced : Нет
    Цветовой диапазон : Limited
    Основные цвета : BT.709
    Характеристики трансфера : BT.709
    Коэффициенты матрицы : BT.709
    Аудио
    Идентификатор : 2
    Формат : AC-3
    Формат/Информация : Audio Coding 3
    Коммерческое название : Dolby Digital
    Идентификатор кодека : A_AC3
    Продолжительность : 2 ч. 15 м.
    Вид битрейта : Постоянный
    Битрейт : 384 Кбит/сек
    Каналы : 2 канала
    ChannelLayout : L R
    Частота : 48, 0 КГц
    Частота кадров : 31, 250 кадров/сек (1536 SPF)
    Битовая глубина : 16 бит
    Метод сжатия : С потерями
    Размер потока : 373 Мбайт (7%)
    Язык : Russian
    ServiceKind/String : Complete Main
    Default : Нет
    Forced : Нет

    Скриншоты для ознакомления



    Все одноименные релизы в Клубе Время раздачи: 24/7 (до появления первых 3-5 скачавших)

    Онлайн видео Соловей



    Соловей/The Nightingale (2018) WEB-DLRip [H.264/720p-LQ] [MVO] [AD]
    Рейтинг →
     (голосов: 1, оценка 4/5, голосовать можно 1 раз )

    Другие торренты по теме:

  • Соловей / Nightingale (2015) HDTVRip скачать через торрент бесплатно
  • Соловей / Nightingale (2015) HDTV [H.264 / 1080i] скачать через торрент бесплатно
  • Соловей / The Nightingale (2018) WEB-DLRip [MVO] [AD]
  • Соловей / The Nightingale (2018) WEB-DL [H.264 / 1080p] [AVO]


    • Комментарии (0):

      Информация

      Информация

        Посетители, находящиеся в группе Гости, не могут оставлять комментарии в данной новости.

        ↓ Меню




        ↓ Опрос

        Вы добавили сайт в закладки?
        Да
        Нет


        Популярное