.
Авторизация | Регистрация

bitok.xyz

» » Сторож (2019) WEB-DLRip [H.265] [10-bit] торрент скачать бесплатно


    Сторож (2019) WEB-DLRip [H.265] [10-bit] торрент скачать бесплатно

    Дата: 27-10-2019, 05:00 | .torrent скачали: 1

    Сторож (2019) WEB-DLRip [H.265] [10-bit]Производство: Россия, Инвада Фильм
    Жанр: драма, триллер
    Режиссер: Юрий Быков
    Продюсер: Андрей Новиков, Александр Котелевский, Ольга Филипук

    Актеры
    Юрий Быков, Владислав Абашин, Алла Юганова, Александр Кузьмин, Артур Бесчастный, Олег Зима, Гела Месхи, Алексей Симонов, Николай Козак, Дмитрий Блохин

    Описание

    Размеренную жизнь сторожа заброшенного санатория нарушает приезд странной пары, которая просит остановиться в одном из номеров. Всем троим есть что скрывать и от чего прятаться в снежной глуши.

    Премьера (РФ) : 24 октября 2019
    Продолжительность: 01: 43: 10
    Качество видео: WEB-DLRip
    Субтитры: Отсутствуют
    Видео: HEVC/H.265, 1024x426, 1906 Кбит/с
    Аудио: AC3, 2 ch, 160 Кбит/с
    Общее
    Уникальный идентификатор : 60364603269467608960973783895191527674 (0x2D69CCB9415EB6C12D972128C6E320FA)
    Полное имя : Storozh.2019.WEB-DLRip.10bit.HEVC.mkv
    Формат : Matroska
    Версия формата : Version 4/Version 2
    Размер файла : 1, 52 Гбайт
    Продолжительность : 1 ч. 43 м.
    Общий поток : 2108 Кбит/сек
    Название фильма : Storozh.2019
    Программа кодирования : XviD4PSP 8.0.77
    Библиотека кодирования : Lavf58.20.100
    ErrorDetectionType : Per level 1
    ENCODING_INFO : MATROSKA, WEBM MKV
    Видео
    Идентификатор : 1
    Формат : HEVC
    Формат/Информация : High Efficiency Video Coding
    Профиль формата : Main10@L4.1@High
    Идентификатор кодека : V_MPEGH/ISO/HEVC
    Продолжительность : 1 ч. 43 м.
    Битрейт : 1906 Кбит/сек
    Ширина : 1024 пикселя
    Высота : 426 пикселей
    Соотношение сторон : 2, 40: 1
    Режим частоты кадров : Постоянный
    Частота кадров : 24, 000 кадра/сек
    Цветовое пространство : YUV
    Субдискретизация насыщенности : 4: 2: 0
    Битовая глубина : 10 бит
    Бит/(Пиксели*Кадры) : 0.182
    Размер потока : 1, 37 Гбайт (90%)
    Default : Да
    Forced : Нет
    Цветовой диапазон : Full
    ENCODING_INFO : H264 HEVC NVENC VBR 2000kbps HQ
    Аудио
    Идентификатор : 2
    Формат : AC-3
    Формат/Информация : Audio Coding 3
    Параметр Endianness формата : Big
    Идентификатор кодека : A_AC3
    Продолжительность : 1 ч. 43 м.
    Вид битрейта : Постоянный
    Битрейт : 160 Кбит/сек
    Каналы : 2 канала
    Расположение каналов : Front: L R
    Частота : 48, 0 КГц
    Частота кадров : 31, 250 кадров/сек (1536 SPF)
    Битовая глубина : 16 бит
    Метод сжатия : С потерями
    Размер потока : 118 Мбайт (8%)
    ServiceKind/String : Complete Main
    Default : Да
    Forced : Нет
    ENCODING_INFO : AC3 AC3 CBR 160kbps

    Скриншоты для ознакомления



    Все одноименные релизы в Клубе
    Время раздачи: 19-23 (до появления первых 3 скачавших)

    Онлайн видео Сторож (2019) WEB



    Сторож (2019) WEB-DLRip [H.265] [10-bit]
    Рейтинг →
     (голосов: 1, оценка 4/5, голосовать можно 1 раз )

    Другие торренты по теме:

  • Сторож (2019) WEB-DLRip
  • Сторож (2019) WEB-DLRip [H.264]


    • Комментарии (0):

      Информация

      Информация

        Посетители, находящиеся в группе Гости, не могут оставлять комментарии в данной новости.

        ↓ Меню




        ↓ Опрос

        Вы добавили сайт в закладки?
        Да
        Нет


        Популярное