.
Авторизация | Регистрация

bitok.xyz

» » Джей в Голливуде / Madness in the Method (2019) WEB-DLRip [H.265] [10-bit] торрент скачать бесплатно


    Джей в Голливуде / Madness in the Method (2019) WEB-DLRip [H.265] [10-bit] торрент скачать бесплатно

    Дата: 27-10-2019, 05:00 | .torrent скачали: 0

    Джей в Голливуде / Madness in the Method (2019) WEB-DLRip [H.265] [10-bit]Производство: США/Autumnwood Media, Happy Hour Films
    Жанр: Комедия, криминал
    Режиссер: Джейсон Мьюз

    Актеры
    Джейсон Мьюз, Кевин Смит, Джина Карано, Хайме Камиль, Винни Джонс, Дэнни Трехо, Мики Гуч мл., Стэн Ли, Брайан О\'Хэллоран, Тери Хэтчер

    Описание

    В альтернативной реальности кинозвезда Кевин Смит раскрывает своему приятелю Джейсону Мьюзу секрет успеха в Голливуде, чтобы тот избавился от вечного амплуа комедианта. Проблемы начинаются, когда Джейсон слишком рьяно следует его методике и начинает играть слишком хорошо, доводя себя до безумия.

    Дата мировой премьеры: 2 августа 2019
    Цифровой релиз: 24 октября 2019

    Продолжительность: 01: 39: 16
    Качество видео: WEB-DLRip
    Перевод: Дублированный (iTunes)
    Субтитры: Английские (Full)
    Видео: HEVC/H.265, 1024x428, ~1934 Kbps
    Аудио 1: AC3, 2 ch, 160 Kbps - Русский
    Аудио 2: AC3, 2 ch, 160 Kbps - Английский
    Общее
    Уникальный идентификатор : 137684837282293948139814345100176068372 (0x67952295FABFD9A796EAE312355F0F14)
    Полное имя : MADNESS.IN.TNE.METHOD.2019.WEB-DLRip.10bit.HEVC.mkv
    Формат : Matroska
    Версия формата : Version 4/Version 2
    Размер файла : 1, 59 Гбайт
    Продолжительность : 1 ч. 39 м.
    Общий поток : 2300 Кбит/сек
    Название фильма : MADNESS_IN_TNE_METHOD (2019)
    Программа кодирования : XviD4PSP 8.0.77
    Библиотека кодирования : Lavf58.20.100
    ErrorDetectionType : Per level 1
    ENCODING_INFO : MATROSKA, WEBM MKV
    Видео
    Идентификатор : 1
    Формат : HEVC
    Формат/Информация : High Efficiency Video Coding
    Профиль формата : Main10@L4.1@High
    Идентификатор кодека : V_MPEGH/ISO/HEVC
    Продолжительность : 1 ч. 39 м.
    Битрейт : 1934 Кбит/сек
    Ширина : 1024 пикселя
    Высота : 428 пикселей
    Соотношение сторон : 2, 40: 1
    Режим частоты кадров : Постоянный
    Частота кадров : 23, 976 (24000/1001) кадра/сек
    Цветовое пространство : YUV
    Субдискретизация насыщенности : 4: 2: 0
    Битовая глубина : 10 бит
    Бит/(Пиксели*Кадры) : 0.184
    Размер потока : 1, 34 Гбайт (84%)
    Язык : English
    Default : Да
    Forced : Нет
    Цветовой диапазон : Limited
    Основные цвета : BT.709
    Характеристики трансфера : BT.709
    Коэффициенты матрицы : BT.709
    ENCODING_INFO : H264 HEVC NVENC VBR 2000kbps HQ
    Аудио #1
    Идентификатор : 2
    Формат : AC-3
    Формат/Информация : Audio Coding 3
    Параметр Endianness формата : Big
    Идентификатор кодека : A_AC3
    Продолжительность : 1 ч. 39 м.
    Вид битрейта : Постоянный
    Битрейт : 160 Кбит/сек
    Каналы : 2 канала
    Расположение каналов : Front: L R
    Частота : 48, 0 КГц
    Частота кадров : 31, 250 кадров/сек (1536 SPF)
    Битовая глубина : 16 бит
    Метод сжатия : С потерями
    Размер потока : 114 Мбайт (7%)
    Заголовок : iTunes
    Язык : Russian
    ServiceKind/String : Complete Main
    Default : Да
    Forced : Нет
    ENCODING_INFO : AC3 AC3 CBR 160kbps
    Аудио #2
    Идентификатор : 3
    Формат : AC-3
    Формат/Информация : Audio Coding 3
    Параметр Endianness формата : Big
    Идентификатор кодека : A_AC3
    Продолжительность : 1 ч. 39 м.
    Вид битрейта : Постоянный
    Битрейт : 160 Кбит/сек
    Каналы : 2 канала
    Расположение каналов : Front: L R
    Частота : 48, 0 КГц
    Частота кадров : 31, 250 кадров/сек (1536 SPF)
    Битовая глубина : 16 бит
    Метод сжатия : С потерями
    Размер потока : 114 Мбайт (7%)
    Заголовок : ORIGINAL
    Язык : English
    ServiceKind/String : Complete Main
    Default : Нет
    Forced : Нет
    ENCODING_INFO : AC3 AC3 CBR 160kbps
    Текст
    Идентификатор : 4
    Формат : UTF-8
    Идентификатор кодека : S_TEXT/UTF8
    Идентификатор кодека/Информация : UTF-8 Plain Text
    Заголовок : Full
    Язык : English
    Default : Да
    Forced : Нет
    ENCODING_INFO : SUBRIP COPY Быстрое
    Меню
    00: 00: 00.000 : : Chapter 1
    00: 12: 16.528 : : Chapter 2
    00: 24: 48.905 : : Chapter 3
    00: 32: 33.452 : : Chapter 4
    00: 47: 04.697 : : Chapter 5
    01: 02: 45.220 : : Chapter 6
    01: 14: 18.996 : : Chapter 7
    01: 35: 32.853 : : Chapter 8

    Скриншоты для ознакомления


    Все одноименные релизы в Клубе
    Время раздачи: 19-23 (до появления первых 3-5 скачавших)

    Онлайн видео Джей в Голливуде



    Джей в Голливуде/Madness in the Method (2019) WEB-DLRip [H.265] [10-bit]
    Рейтинг →
     (голосов: 1, оценка 4/5, голосовать можно 1 раз )

    Другие торренты по теме:

  • Джей в Голливуде / Madness in the Method (2019) WEB-DLRip
  • Джей в Голливуде / Madness in the Method (2019) WEB-DL [H.264 / 1080p-LQ]
  • Джей в Голливуде / Madness in the Method (2019) WEB-DL [H.264 / 720p-LQ]


    • Комментарии (0):

      Информация

      Информация

        Посетители, находящиеся в группе Гости, не могут оставлять комментарии в данной новости.

        ↓ Меню




        ↓ Опрос

        Вы добавили сайт в закладки?
        Да
        Нет


        Популярное