.
Авторизация | Регистрация

bitok.xyz

» » Мистер Олимпия / Bigger (2018) WEB-DLRip [H.265] [10-bit] торрент скачать бесплатно


    Мистер Олимпия / Bigger (2018) WEB-DLRip [H.265] [10-bit] торрент скачать бесплатно

    Дата: 27-10-2019, 05:00 | .torrent скачали: 1

    Мистер Олимпия / Bigger (2018) WEB-DLRip [H.265] [10-bit]Производство: США/Bee Holder Productions, Red Sky Studios
    Жанр: Драма
    Режиссер: Джордж Галло
    Продюсер: Стив Ли Джонс, Скотт ЛаСтайти, Танназ Аниси

    Актеры
    Джулианна Хаф, Тайлер Хэклин, Колтон Хэйнс, Макс Мартини, Кевин Дюран, DJ Куоллс, Виктория Джастис, Стив Гуттенберг, Анейрин Барнард, Роберт Форстер

    Описание

    Братья Джо и Бен Уайдеры — профессиональные тренеры, всю жизнь занимавшиеся популяризацией бодибилдинга. В 1946 году они основали Международную федерацию бодибилдинга, которая впоследствии выросла в мощную и влиятельную организацию. Именно они обнаружили в Австрии молодого Арнольда Шварценеггера и уговорили его переехать в США. Фильм расскажет, как строилась империя Уайдеров и скольким им пришлось пожертвовать, чтобы пробиться наверх.

    Рейтинг MPAA: PG-13 (детям до 13 лет просмотр не желателен)
    Дата мировой премьеры: 13 сентября 2018
    Продолжительность: 01: 47: 17
    Качество видео: WEB-DLRip
    Перевод: Дублированный (iTunes)
    Субтитры: Отсутствуют
    Видео: HEVC/H.265, 1024x424, 1952 Kbps
    Аудио 1 : AC3, 2 ch, 160 Kbps | Русский
    Аудио 2 : AC3, 2 ch, 160 Kbps | Английский
    Общее
    Уникальный идентификатор : 3344601331743065797408118029482701703 (0x2842593BF20E6BB007A2BBBA5B3B387)
    Полное имя : Bigger.2018.WEB-DLRip.10bit.HEVC.mkv
    Формат : Matroska
    Версия формата : Version 4/Version 2
    Размер файла : 1, 74 Гбайт
    Продолжительность : 1 ч. 47 м.
    Общий поток : 2318 Кбит/сек
    Программа кодирования : XviD4PSP 8.0.77
    Библиотека кодирования : Lavf58.20.100
    ErrorDetectionType : Per level 1
    ENCODING_INFO : MATROSKA, WEBM MKV 1024 10 бит
    Видео
    Идентификатор : 1
    Формат : HEVC
    Формат/Информация : High Efficiency Video Coding
    Профиль формата : Main10@L4.1@High
    Идентификатор кодека : V_MPEGH/ISO/HEVC
    Продолжительность : 1 ч. 47 м.
    Битрейт : 1952 Кбит/сек
    Ширина : 1024 пикселя
    Высота : 424 пикселя
    Соотношение сторон : 2, 40: 1
    Режим частоты кадров : Постоянный
    Частота кадров : 23, 976 (24000/1001) кадра/сек
    Цветовое пространство : YUV
    Субдискретизация насыщенности : 4: 2: 0
    Битовая глубина : 10 бит
    Бит/(Пиксели*Кадры) : 0.188
    Размер потока : 1, 46 Гбайт (84%)
    Язык : English
    Default : Да
    Forced : Нет
    Цветовой диапазон : Limited
    Основные цвета : BT.709
    Характеристики трансфера : BT.709
    Коэффициенты матрицы : BT.709
    ENCODING_INFO : H264 HEVC NVENC VBR 2000kbps HQ
    Аудио #1
    Идентификатор : 2
    Формат : AC-3
    Формат/Информация : Audio Coding 3
    Параметр Endianness формата : Big
    Идентификатор кодека : A_AC3
    Продолжительность : 1 ч. 47 м.
    Вид битрейта : Постоянный
    Битрейт : 160 Кбит/сек
    Каналы : 2 канала
    Расположение каналов : Front: L R
    Частота : 48, 0 КГц
    Частота кадров : 31, 250 кадров/сек (1536 SPF)
    Битовая глубина : 16 бит
    Метод сжатия : С потерями
    Размер потока : 123 Мбайт (7%)
    Язык : Russian
    ServiceKind/String : Complete Main
    Default : Да
    Forced : Нет
    ENCODING_INFO : AC3 AC3 CBR 160kbps
    Аудио #2
    Идентификатор : 3
    Формат : AC-3
    Формат/Информация : Audio Coding 3
    Параметр Endianness формата : Big
    Идентификатор кодека : A_AC3
    Продолжительность : 1 ч. 47 м.
    Вид битрейта : Постоянный
    Битрейт : 160 Кбит/сек
    Каналы : 2 канала
    Расположение каналов : Front: L R
    Частота : 48, 0 КГц
    Частота кадров : 31, 250 кадров/сек (1536 SPF)
    Битовая глубина : 16 бит
    Метод сжатия : С потерями
    Размер потока : 123 Мбайт (7%)
    Язык : English
    ServiceKind/String : Complete Main
    Default : Нет
    Forced : Нет
    ENCODING_INFO : AC3 AC3 CBR 160kbps
    Меню
    00: 00: 00.000 : : 1
    00: 10: 30.880 : : 2
    00: 20: 17.049 : : 3
    00: 29: 43.073 : : 4
    00: 41: 20.311 : : 5
    00: 52: 55.339 : : 6
    01: 08: 08.752 : : 7
    01: 19: 19.839 : : 8
    01: 25: 50.521 : : 9
    01: 43: 07.891 : : 10

    Скриншоты для ознакомления



    Все одноименные релизы в Клубе
    Время раздачи: 19-23 (до появления первых 3-5 скачавших)

    Онлайн видео Мистер Олимпия



    Мистер Олимпия/Bigger (2018) WEB-DLRip [H.265] [10-bit]
    Рейтинг →
     (голосов: 1, оценка 4/5, голосовать можно 1 раз )

    Другие торренты по теме:

  • Мистер Олимпия / Bigger (2018) WEB-DL [H.264 / 1080p-LQ]


    • Комментарии (0):

      Информация

      Информация

        Посетители, находящиеся в группе Гости, не могут оставлять комментарии в данной новости.

        ↓ Меню




        ↓ Опрос

        Вы добавили сайт в закладки?
        Да
        Нет


        Популярное