.
Авторизация | Регистрация

bitok.xyz

» » Пункт назначения: Смайл / Polaroid (2019) BDRip [H.265] [10-bit] торрент скачать бесплатно


    Пункт назначения: Смайл / Polaroid (2019) BDRip [H.265] [10-bit] торрент скачать бесплатно

    Дата: 27-10-2019, 05:00 | .torrent скачали: 0

    Пункт назначения: Смайл / Polaroid (2019) BDRip [H.265] [10-bit]Производство: Канада, Норвегия, США | Dimension Films, Eldorado Film, Vertigo Entertainment
    Жанр: ужасы, триллер, детектив
    Режиссер: Ларс Клевберг

    Актеры
    Кэтрин Прескотт, Тайлер Янг, Саманта Логан, Кинэн Трэйси, Присцилла Квинтана, Хавьер Ботет, Митч Пиледжи, Дави Сантос, Кэти Стивенс, Грэйс Забриски

    Описание

    В руки к старшекласснице Бёрд, работающей в антикварном магазине, попадает винтажный фотоаппарат Polaroid. Девушка делает снимок коллеги, а позже подруга вытаскивает её на вечеринку, где все тоже очень любят фотографироваться. В этот же вечер Бёрд узнаёт, что парень из магазина мёртв, а когда погибает и хозяйка вечеринки, Бёрд начинает догадываться, кто умрёт следующим. Дьявольское устройство убивает любого, кто окажется на фотографии, сделанной с его помощью...

    Возраст: 16+ (зрителям, достигшим 16 лет)
    Рейтинг MPAA: PG-13 (детям до 13 лет просмотр нежелателен)
    Дата мировой премьеры: 10 января 2019
    Дата российской премьеры: 12 сентября 2019 Экспонента
    Продолжительность: 01: 27: 59
    Качество видео: BDRip
    Перевод: Дублированный (iTunes)
    Субтитры: русские, английские
    Видео: HEVC/H.265, 720x300, 1782 Kbps
    Аудио 1 : AC3, 2 ch, 160 Kbps | Русский
    Аудио 2 : AC3, 2 ch, 160 Kbps | Английиский
    Общее
    Уникальный идентификатор : 24362396859634985413820227964570446862 (0x125406E70A6CD334900DE405C3042C0E)
    Полное имя : Polaroid.2019.BDRip.10bit.HEVC.mkv
    Формат : Matroska
    Версия формата : Version 4/Version 2
    Размер файла : 1, 32 Гбайт
    Продолжительность : 1 ч. 27 м.
    Общий поток : 2145 Кбит/сек
    Программа кодирования : XviD4PSP 8.0.77
    Библиотека кодирования : Lavf58.20.100
    ErrorDetectionType : Per level 1
    ENCODING_INFO : MATROSKA, WEBM MKV
    Видео
    Идентификатор : 1
    Формат : HEVC
    Формат/Информация : High Efficiency Video Coding
    Профиль формата : Main10@L4.1@High
    Идентификатор кодека : V_MPEGH/ISO/HEVC
    Продолжительность : 1 ч. 27 м.
    Битрейт : 1782 Кбит/сек
    Ширина : 720 пикселей
    Высота : 300 пикселей
    Соотношение сторон : 2, 40: 1
    Режим частоты кадров : Постоянный
    Частота кадров : 24, 000 кадра/сек
    Цветовое пространство : YUV
    Субдискретизация насыщенности : 4: 2: 0
    Битовая глубина : 10 бит
    Бит/(Пиксели*Кадры) : 0.344
    Размер потока : 1, 10 Гбайт (83%)
    Язык : English
    Default : Да
    Forced : Нет
    Цветовой диапазон : Full
    ENCODING_INFO : H264 HEVC NVENC VBR 2000kbps HQ
    Аудио #1
    Идентификатор : 2
    Формат : AC-3
    Формат/Информация : Audio Coding 3
    Параметр Endianness формата : Big
    Идентификатор кодека : A_AC3
    Продолжительность : 1 ч. 27 м.
    Вид битрейта : Постоянный
    Битрейт : 160 Кбит/сек
    Каналы : 2 канала
    Расположение каналов : Front: L R
    Частота : 48, 0 КГц
    Частота кадров : 31, 250 кадров/сек (1536 SPF)
    Битовая глубина : 16 бит
    Метод сжатия : С потерями
    Размер потока : 101 Мбайт (7%)
    Заголовок : Dub iTunes
    Язык : Russian
    ServiceKind/String : Complete Main
    Default : Да
    Forced : Нет
    ENCODING_INFO : AC3 AC3 CBR 160kbps
    Аудио #2
    Идентификатор : 3
    Формат : AC-3
    Формат/Информация : Audio Coding 3
    Параметр Endianness формата : Big
    Идентификатор кодека : A_AC3
    Продолжительность : 1 ч. 27 м.
    Вид битрейта : Постоянный
    Битрейт : 160 Кбит/сек
    Каналы : 2 канала
    Расположение каналов : Front: L R
    Частота : 48, 0 КГц
    Частота кадров : 31, 250 кадров/сек (1536 SPF)
    Битовая глубина : 16 бит
    Метод сжатия : С потерями
    Размер потока : 101 Мбайт (7%)
    Язык : English
    ServiceKind/String : Complete Main
    Default : Нет
    Forced : Нет
    ENCODING_INFO : DTS-HD MA AC3 CBR 160kbps
    Текст #1
    Идентификатор : 4
    Формат : UTF-8
    Идентификатор кодека : S_TEXT/UTF8
    Идентификатор кодека/Информация : UTF-8 Plain Text
    Заголовок : forced
    Язык : Russian
    Default : Да
    Forced : Да
    ENCODING_INFO : SUBRIP COPY Быстрое
    Текст #2
    Идентификатор : 5
    Формат : UTF-8
    Идентификатор кодека : S_TEXT/UTF8
    Идентификатор кодека/Информация : UTF-8 Plain Text
    Заголовок : Enigma
    Язык : Russian
    Default : Нет
    Forced : Нет
    ENCODING_INFO : SUBRIP COPY Быстрое
    Текст #3
    Идентификатор : 6
    Формат : UTF-8
    Идентификатор кодека : S_TEXT/UTF8
    Идентификатор кодека/Информация : UTF-8 Plain Text
    Язык : English
    Default : Нет
    Forced : Нет
    ENCODING_INFO : SUBRIP COPY Быстрое
    Меню
    00: 00: 00.000 : : Chapter 01
    00: 07: 03.000 : : Chapter 02
    00: 12: 44.708 : : Chapter 03
    00: 20: 39.791 : : Chapter 04
    00: 27: 07.833 : : Chapter 05
    00: 30: 51.125 : : Chapter 06
    00: 34: 17.500 : : Chapter 07
    00: 39: 37.250 : : Chapter 08
    00: 44: 51.875 : : Chapter 09
    00: 48: 46.166 : : Chapter 10
    00: 53: 24.166 : : Chapter 11
    00: 59: 33.583 : : Chapter 12
    01: 07: 28.250 : : Chapter 13
    01: 12: 48.708 : : Chapter 14
    01: 17: 49.541 : : Chapter 15
    01: 23: 02.125 : : Chapter 16

    Скриншоты для ознакомления



    Все одноименные релизы в Клубе
    Время раздачи: 19-23 (до появления первых 3-5 скачавших)

    Онлайн видео Пункт назначения: Смайл



    Пункт назначения: Смайл/Polaroid (2019) BDRip [H.265] [10-bit]
    Рейтинг →
     (голосов: 1, оценка 5/5, голосовать можно 1 раз )

    Другие торренты по теме:

  • Пункт назначения / Final Destination (2000, 2002, 2006, 2009, 2011) BDRip [H.264 / 1080p] [Пентaлогия]
  • Пункт назначения / Final Destination (2000-2011) BDRip [720p] [Коллекция]
  • Пункт назначения / Final Destination (2000-2011) BDRip [1080p] [Антология]скачать через торрент бесплатно
  • Пункт назначения / Final Destination (2000) BDRip [H.264] скачать через торрент бесплатно
  • Пункт Назначения / Final Destination (2000) DVDRemux скачать через торрент бесплатно
  • Агент Коди Бэнкс 2: Пункт назначения – Лондон / Agent Cody Banks 2: Destination London (2004) BDRip [H.264]
  • Пункт назначения 3 / Final Destination 3 (2006) BDRip [H.264 / 1080p-LQ]
  • Пункт назначения 3 / Final Destination 3 (2006) BDRip [H.264 / 720p-LQ]


    • Комментарии (0):

      Информация

      Информация

        Посетители, находящиеся в группе Гости, не могут оставлять комментарии в данной новости.

        ↓ Меню




        ↓ Опрос

        Вы добавили сайт в закладки?
        Да
        Нет


        Популярное