.
Авторизация | Регистрация

bitok.xyz

» » Человек будущего / The Tomorrow Man (2019) WEB-DLRip [H.265] [10-bit] торрент скачать бесплатно


    Человек будущего / The Tomorrow Man (2019) WEB-DLRip [H.265] [10-bit] торрент скачать бесплатно

    Дата: 27-10-2019, 05:00 | .torrent скачали: 0

    Человек будущего / The Tomorrow Man (2019) WEB-DLRip [H.265] [10-bit]Производство: США/Symbolic Exchange, Anonymous Content
    Жанр: Драма, Мелодрама
    Режиссер: Ноубл Линкольн Джонс

    Актеры
    Джон Литгоу, Блайт Даннер, Дерек Сесил, Кэтрин Аселтон, Софи Тэтчер, Ив Харлоу, Уэнди Маккена, Изабель Бони, Шон М. Эсслер, Энтони Лафорнара

    Описание

    Любви все возрасты покорны. Эд переживает о будущем и готовится к концу света, а Ронни не может забыть прошлое. Но вместе они смогут вспомнить, что значит жить настоящим.

    Рейтинг MPAA: PG-13 (детям до 13 лет просмотр нежелателен)
    Дата мировой премьеры: 30 января 2019
    Дата российской премьеры: Неизвестна
    Продолжительность: 01: 35: 18
    Качество видео: WEB-DLRip
    Перевод: Многоголосый профессиональный (iTunes)
    Субтитры: Русские (полные), английские (полные, SDH)
    Видео: HEVC/H.265, 1024x426, ~1957 Kbps
    Аудио 1: AC3, 2 ch, 160 Kbps - Русский
    Аудио 2: AC3, 2 ch, 160 Kbps - Английский
    Общее
    Уникальный идентификатор : 229662068931962702887342934012592233794 (0xACC74E397B48932E297C3F9812319D42)
    Полное имя : The.Tomorrow.Man.2019.WEB-DLRip.10bit.HEVC.mkv
    Формат : Matroska
    Версия формата : Version 4/Version 2
    Размер файла : 1, 55 Гбайт
    Продолжительность : 1 ч. 35 м.
    Общий поток : 2323 Кбит/сек
    Название фильма : The Tomorrow Man 2019
    Программа кодирования : XviD4PSP 8.0.77
    Библиотека кодирования : Lavf58.20.100
    ErrorDetectionType : Per level 1
    ENCODING_INFO : MATROSKA, WEBM MKV
    Видео
    Идентификатор : 1
    Формат : HEVC
    Формат/Информация : High Efficiency Video Coding
    Профиль формата : Main10@L4.1@High
    Идентификатор кодека : V_MPEGH/ISO/HEVC
    Продолжительность : 1 ч. 35 м.
    Битрейт : 1957 Кбит/сек
    Ширина : 1024 пикселя
    Высота : 426 пикселей
    Соотношение сторон : 2, 40: 1
    Режим частоты кадров : Постоянный
    Частота кадров : 23, 976 (24000/1001) кадра/сек
    Цветовое пространство : YUV
    Субдискретизация насыщенности : 4: 2: 0
    Битовая глубина : 10 бит
    Бит/(Пиксели*Кадры) : 0.187
    Размер потока : 1, 30 Гбайт (84%)
    Язык : English
    Default : Да
    Forced : Нет
    Цветовой диапазон : Limited
    Основные цвета : BT.709
    Характеристики трансфера : BT.709
    Коэффициенты матрицы : BT.709
    ENCODING_INFO : H264 HEVC NVENC VBR 2000kbps HQ
    Аудио #1
    Идентификатор : 2
    Формат : AC-3
    Формат/Информация : Audio Coding 3
    Параметр Endianness формата : Big
    Идентификатор кодека : A_AC3
    Продолжительность : 1 ч. 35 м.
    Вид битрейта : Постоянный
    Битрейт : 160 Кбит/сек
    Каналы : 2 канала
    Расположение каналов : Front: L R
    Частота : 48, 0 КГц
    Частота кадров : 31, 250 кадров/сек (1536 SPF)
    Битовая глубина : 16 бит
    Метод сжатия : С потерями
    Размер потока : 109 Мбайт (7%)
    Заголовок : iTunes
    Язык : Russian
    ServiceKind/String : Complete Main
    Default : Да
    Forced : Нет
    ENCODING_INFO : AC3 AC3 CBR 160kbps
    Аудио #2
    Идентификатор : 3
    Формат : AC-3
    Формат/Информация : Audio Coding 3
    Параметр Endianness формата : Big
    Идентификатор кодека : A_AC3
    Продолжительность : 1 ч. 35 м.
    Вид битрейта : Постоянный
    Битрейт : 160 Кбит/сек
    Каналы : 2 канала
    Расположение каналов : Front: L R
    Частота : 48, 0 КГц
    Частота кадров : 31, 250 кадров/сек (1536 SPF)
    Битовая глубина : 16 бит
    Метод сжатия : С потерями
    Размер потока : 109 Мбайт (7%)
    Заголовок : Original
    Язык : English
    ServiceKind/String : Complete Main
    Default : Нет
    Forced : Нет
    ENCODING_INFO : EAC3 AC3 CBR 160kbps
    Текст #1
    Идентификатор : 4
    Формат : UTF-8
    Идентификатор кодека : S_TEXT/UTF8
    Идентификатор кодека/Информация : UTF-8 Plain Text
    Заголовок : Full
    Язык : Russian
    Default : Да
    Forced : Нет
    ENCODING_INFO : SUBRIP COPY Быстрое
    Текст #2
    Идентификатор : 5
    Формат : UTF-8
    Идентификатор кодека : S_TEXT/UTF8
    Идентификатор кодека/Информация : UTF-8 Plain Text
    Заголовок : Full
    Язык : English
    Default : Нет
    Forced : Нет
    ENCODING_INFO : SUBRIP COPY Быстрое
    Текст #3
    Идентификатор : 6
    Формат : UTF-8
    Идентификатор кодека : S_TEXT/UTF8
    Идентификатор кодека/Информация : UTF-8 Plain Text
    Заголовок : SDH
    Язык : English
    Default : Нет
    Forced : Нет
    ENCODING_INFO : SUBRIP COPY Быстрое
    Меню
    00: 00: 00.000 : : 1
    00: 03: 38.760 : : 2
    00: 08: 06.819 : : 3
    00: 12: 01.762 : : 4
    00: 18: 14.633 : : 5
    00: 25: 12.174 : : 6
    00: 29: 46.697 : : 7
    00: 33: 44.434 : : 8
    00: 38: 55.620 : : 9
    00: 44: 49.931 : : 10
    00: 50: 45.327 : : 11
    00: 56: 43.350 : : 12
    01: 00: 41.004 : : 13
    01: 05: 27.790 : : 14
    01: 10: 51.529 : : 15
    01: 15: 50.620 : : 16
    01: 20: 19.721 : : 17
    01: 23: 18.398 : : 18
    01: 27: 52.630 : : 19
    01: 32: 15.184 : : 20

    Скриншоты для ознакомления



    Все одноименные релизы в Клубе
    Время раздачи: 11-14 (до появления первых 3-5 скачавших)

    Онлайн видео Человек будущего



    Человек будущего/The Tomorrow Man (2019) WEB-DLRip [H.265] [10-bit]
    Рейтинг →
     (голосов: 1, оценка 5/5, голосовать можно 1 раз )

    Другие торренты по теме:

  • Человек будущего / Future Man (2017) WEBRip [H.264 / 1080p-LQ] (сезон 1, серии 1-13 из 13) NewStudio
  • Человек будущего / Future Man (2017) WEB-DL [H.264 / 720p-LQ] (сезон 1, серии 1-13 из 13) AMS [AD]
  • Человек будущего / Future Man (2017) WEBRip [H.264 / 1080p-LQ] (сезон 1, серии 1-2 из 13) OMSKBIRD (обновляемая) [AD]
  • Человек будущего / Future Man (2019) WEBRip [H.264 / 1080p] (сезон 2, серии 1 из 13) OMSKBIRD (обновляемая) [AD]
  • Человек будущего / Future Man (2019) WEB-DLRip (сезон 2, серии 1-13 из 13) Jaskier [AD]
  • Человек будущего / Future Man (2019) WEB-DLRip [H.264 / 720p-LQ] (сезон 2, серии 1-13 из 13) Jaskier [AD]
  • Человек будущего / Future Man (2019) WEBRip [H.264 / 1080p-LQ] (сезон 2, серии 1-13 из 13) TVShows
  • Человек будущего / The Tomorrow Man (2019) WEB-DLRip


    • Комментарии (0):

      Информация

      Информация

        Посетители, находящиеся в группе Гости, не могут оставлять комментарии в данной новости.

        ↓ Меню




        ↓ Опрос

        Вы добавили сайт в закладки?
        Да
        Нет


        Популярное