.
Авторизация | Регистрация

bitok.xyz

» » Венеция зовет / Venise nest pas en Italie (2019) BDRip [H.265] [10-bit] торрент скачать бесплатно


    Венеция зовет / Venise nest pas en Italie (2019) BDRip [H.265] [10-bit] торрент скачать бесплатно

    Дата: 27-10-2019, 05:00 | .torrent скачали: 0

    Венеция зовет / Venise nest pas en Italie (2019) BDRip [H.265] [10-bit]Производство: Франция, Бельгия, Asifilms, StudioCanal, France 2 Cinéma
    Жанр: Драма, комедия
    Режиссер: Иван Кальберак

    Актеры
    Бенуа Пульворд, Валери Боннетон, Эли Тонна, Эжен Маркус, Колин Д\'Инка, Луна Лу, Вероника Новак, Николя Бриансон, Давид Салль, Франсуа Делирснайдер

    Описание

    Эмилю 14, он брюнет. Но его мама считает, что все блондины счастливы, поэтому каждый месяц позорно красит ему волосы. А его папа — чудаковатый торговый представитель — никак не может достроить дом, поэтому семья живет в фургончике. Ещё Эмиль влюблен в Полину, которая однажды пригласила его на концерт в Венецию, где ей предстояло выступать. Конечно, вместе с бедным подростком туда устремляется и вся его семейка… Это будет то ещё приключение!

    Возраст: 12+ (зрителям, достигшим 12 лет)
    Дата мировой премьеры: 16 мая 2019
    Дата российской премьеры: 3 октября 2019
    Продолжительность: 01: 33: 50
    Качество видео: BDRip
    Перевод: Дублированный (iTunes)
    Субтитры: Отсутствуют
    Видео: HEVC/H.265, 720х302, ~1951 Kbps
    Аудио 1: AC3, 2 ch, 160 Kbps | Русский
    Аудио 2: AC3, 2 ch, 160 Kbps | Французский
    Общее
    Уникальный идентификатор : 33403478940196116966279505882527328420 (0x192146AA2611956EE096FB75B08468A4)
    Полное имя : Venise.nest.pas.en.Italie.2019.BDRip.10bit.HEVC.mkv
    Формат : Matroska
    Версия формата : Version 4/Version 2
    Размер файла : 1, 52 Гбайт
    Продолжительность : 1 ч. 33 м.
    Общий поток : 2317 Кбит/сек
    Название фильма : Venise.nest.pas.en.Italie.2019
    Программа кодирования : XviD4PSP 8.0.77
    Библиотека кодирования : Lavf58.20.100
    ErrorDetectionType : Per level 1
    ENCODING_INFO : MATROSKA, WEBM MKV 1024 10 бит
    Видео
    Идентификатор : 1
    Формат : HEVC
    Формат/Информация : High Efficiency Video Coding
    Профиль формата : Main10@L4.1@High
    Идентификатор кодека : V_MPEGH/ISO/HEVC
    Продолжительность : 1 ч. 33 м.
    Битрейт : 1951 Кбит/сек
    Ширина : 720 пикселей
    Высота : 302 пикселя
    Соотношение сторон : 2, 40: 1
    Режим частоты кадров : Постоянный
    Частота кадров : 23, 976 (24000/1001) кадра/сек
    Цветовое пространство : YUV
    Субдискретизация насыщенности : 4: 2: 0
    Битовая глубина : 10 бит
    Бит/(Пиксели*Кадры) : 0.374
    Размер потока : 1, 28 Гбайт (84%)
    Язык : English
    Default : Да
    Forced : Нет
    Цветовой диапазон : Limited
    Основные цвета : BT.709
    Характеристики трансфера : BT.709
    Коэффициенты матрицы : BT.709
    ENCODING_INFO : H264 HEVC NVENC VBR 2000kbps HQ
    Аудио #1
    Идентификатор : 2
    Формат : AC-3
    Формат/Информация : Audio Coding 3
    Параметр Endianness формата : Big
    Идентификатор кодека : A_AC3
    Продолжительность : 1 ч. 33 м.
    Вид битрейта : Постоянный
    Битрейт : 160 Кбит/сек
    Каналы : 2 канала
    Расположение каналов : Front: L R
    Частота : 48, 0 КГц
    Частота кадров : 31, 250 кадров/сек (1536 SPF)
    Битовая глубина : 16 бит
    Метод сжатия : С потерями
    Размер потока : 107 Мбайт (7%)
    Заголовок : Dub iTunes
    Язык : Russian
    ServiceKind/String : Complete Main
    Default : Да
    Forced : Нет
    ENCODING_INFO : AC3 AC3 CBR 160kbps
    Аудио #2
    Идентификатор : 3
    Формат : AC-3
    Формат/Информация : Audio Coding 3
    Параметр Endianness формата : Big
    Идентификатор кодека : A_AC3
    Продолжительность : 1 ч. 33 м.
    Вид битрейта : Постоянный
    Битрейт : 160 Кбит/сек
    Каналы : 2 канала
    Расположение каналов : Front: L R
    Частота : 48, 0 КГц
    Частота кадров : 31, 250 кадров/сек (1536 SPF)
    Битовая глубина : 16 бит
    Метод сжатия : С потерями
    Размер потока : 107 Мбайт (7%)
    Язык : French
    ServiceKind/String : Complete Main
    Default : Нет
    Forced : Нет
    ENCODING_INFO : DTS-HD MA AC3 CBR 160kbps
    Меню
    00: 00: 00.000 : : Chapter 1
    00: 10: 23.581 : : Chapter 2
    00: 19: 33.255 : : Chapter 3
    00: 28: 39.259 : : Chapter 4
    00: 37: 40.925 : : Chapter 5
    00: 45: 53.375 : : Chapter 6
    00: 54: 26.096 : : Chapter 7
    01: 02: 12.770 : : Chapter 8
    01: 08: 39.782 : : Chapter 9
    01: 14: 48.567 : : Chapter 10
    01: 22: 40.163 : : Chapter 11
    01: 30: 20.998 : : Chapter 12

    Скриншоты для ознакомления



    Все одноименные релизы в Клубе
    Время раздачи: 19-23 (до появления первых 3-5 скачавших)

    Онлайн видео Венеция зовет



    Венеция зовет/Venise nest pas en Italie (2019) BDRip [H.265] [10-bit]
    Рейтинг →
     (голосов: 1, оценка 5/5, голосовать можно 1 раз )

    Другие торренты по теме:

  • Венеция зовет / Venise nest pas en Italie (2019) WEB-DLRip [MVO] [AD]
  • Венеция зовет / Venise nest pas en Italie (2019) WEB-DLRip [H.264 / 720p-LQ] [MVO] [AD]
  • Венеция зовет / Venise nest pas en Italie (2019) BDRip [H.264 / 1080p]
  • Венеция зовет / Venise nest pas en Italie (2019) BDRemux [H.264 / 1080p]
  • Венеция зовет / Venise nest pas en Italie (2019) BDRip [H.265 / 1080p] [10-bit] [PR]
  • Венеция зовет / Venise nest pas en Italie (2019) BDRip [H.265 / 720p] [10-bit] [PR]
  • Венеция зовет / Venise nest pas en Italie (2019) BDRemux [H.264 / 1080p]
  • Венеция зовет / Venise nest pas en Italie (2019) BDRip [H.264 / 720p]


    • Комментарии (0):

      Информация

      Информация

        Посетители, находящиеся в группе Гости, не могут оставлять комментарии в данной новости.

        ↓ Меню




        ↓ Опрос

        Вы добавили сайт в закладки?
        Да
        Нет


        Популярное