.
Авторизация | Регистрация

bitok.xyz

» » Зеровилль / Zeroville (2019) WEB-DLRip [H.265] [10-bit] торрент скачать бесплатно


    Зеровилль / Zeroville (2019) WEB-DLRip [H.265] [10-bit] торрент скачать бесплатно

    Дата: 27-10-2019, 05:00 | .torrent скачали: 1

    Зеровилль / Zeroville (2019) WEB-DLRip [H.265] [10-bit]Производство: США/Patriot Pictures, RabbitBandini Productions
    Жанр: Драма, комедия
    Режиссер: Джеймс Франко

    Актеры
    Джеймс Франко, Сет Роген, Джеки Уивер, Меган Фокс, Джои Кинг, Уилл Феррелл, Дэнни Макбрайд, Дэйв Франко, Крэйг Робинсон, Томас Иэн Николас

    Описание

    Однажды в Голливуд отправляется одержимый кино студент-архитектор с эффектной татуировкой на бритой голове, и попадает в мир кино, секса, наркотиков, рок-н-ролла, упадка больших киностудий и подъема независимых режиссеров.

    Возраст: 18+ (зрителям, достигшим 18 лет. запрещено для детей)
    Рейтинг MPAA: R (лицам до 17 лет обязательно присутствие взрослого)
    Дата мировой премьеры: 13 сентября 2019
    Дата премьеры в России: 19 сентября 2019

    Продолжительность: 01: 32: 25
    Качество видео: WEB-DLRip
    Перевод: Дублированный (iTunes)
    Субтитры: Отсутствуют
    Видео: HEVC/H.265, 1024x426, ~1944 Kbps
    Аудио: AC3, 2 ch, 160 Kbps
    Общее
    Уникальный идентификатор : 119298035180612072558252601902879212018 (0x59BFF74060EF56F8483C0B57DFAC01F2)
    Полное имя : Zeroville.2019.WEB-DLRip.10bit.HEVC.mkv
    Формат : Matroska
    Версия формата : Version 4/Version 2
    Размер файла : 1, 39 Гбайт
    Продолжительность : 1 ч. 32 м.
    Общий поток : 2147 Кбит/сек
    Название фильма : Zeroville 2019
    Программа кодирования : XviD4PSP 8.0.77
    Библиотека кодирования : Lavf58.20.100
    ErrorDetectionType : Per level 1
    ENCODING_INFO : MATROSKA, WEBM MKV 1024 10 бит
    Видео
    Идентификатор : 1
    Формат : HEVC
    Формат/Информация : High Efficiency Video Coding
    Профиль формата : Main10@L4.1@High
    Идентификатор кодека : V_MPEGH/ISO/HEVC
    Продолжительность : 1 ч. 32 м.
    Битрейт : 1944 Кбит/сек
    Ширина : 1024 пикселя
    Высота : 426 пикселей
    Соотношение сторон : 2, 40: 1
    Режим частоты кадров : Постоянный
    Частота кадров : 25, 000 кадров/сек
    Цветовое пространство : YUV
    Субдискретизация насыщенности : 4: 2: 0
    Битовая глубина : 10 бит
    Бит/(Пиксели*Кадры) : 0.178
    Размер потока : 1, 26 Гбайт (91%)
    Язык : English
    Default : Да
    Forced : Нет
    Цветовой диапазон : Limited
    Основные цвета : BT.709
    Характеристики трансфера : BT.709
    Коэффициенты матрицы : BT.709
    ENCODING_INFO : H264 HEVC NVENC VBR 2000kbps HQ
    Аудио
    Идентификатор : 2
    Формат : AC-3
    Формат/Информация : Audio Coding 3
    Параметр Endianness формата : Big
    Идентификатор кодека : A_AC3
    Продолжительность : 1 ч. 32 м.
    Вид битрейта : Постоянный
    Битрейт : 160 Кбит/сек
    Каналы : 2 канала
    Расположение каналов : Front: L R
    Частота : 48, 0 КГц
    Частота кадров : 31, 250 кадров/сек (1536 SPF)
    Битовая глубина : 16 бит
    Метод сжатия : С потерями
    Размер потока : 106 Мбайт (7%)
    Заголовок : iTunes
    Язык : Russian
    ServiceKind/String : Complete Main
    Default : Да
    Forced : Нет
    ENCODING_INFO : AC3 AC3 CBR 160kbps
    Меню
    00: 00: 00.000 : : Глава 1
    00: 04: 29.040 : : Глава 2
    00: 10: 54.880 : : Глава 3
    00: 16: 40.920 : : Глава 4
    00: 20: 19.560 : : Глава 5
    00: 26: 48.040 : : Глава 6
    00: 31: 57.200 : : Глава 7
    00: 41: 45.200 : : Глава 8
    00: 46: 38.040 : : Глава 9
    00: 54: 29.600 : : Глава 10
    00: 59: 17.280 : : Глава 11
    01: 05: 03.400 : : Глава 12
    01: 11: 42.480 : : Глава 13
    01: 18: 41.240 : : Глава 14
    01: 24: 38.440 : : Глава 15

    Скриншоты для ознакомления



    Все одноименные релизы в Клубе
    Время раздачи: 19-23 (до появления первых 3-5 скачавших)

    Онлайн видео Зеровилль



    Зеровилль/Zeroville (2019) WEB-DLRip [H.265] [10-bit]
    Рейтинг →
     (голосов: 1, оценка 4/5, голосовать можно 1 раз )

    Другие торренты по теме:

  • Зеровилль / Zeroville (2019) WEB-DLRip
  • Зеровилль / Zeroville (2019) WEB-DL [H.264 / 1080p-LQ]
  • Зеровилль / Zeroville (2019) WEB-DL [H.264 / 720p-LQ]


    • Комментарии (0):

      Информация

      Информация

        Посетители, находящиеся в группе Гости, не могут оставлять комментарии в данной новости.

        ↓ Меню




        ↓ Опрос

        Вы добавили сайт в закладки?
        Да
        Нет


        Популярное