.
Авторизация | Регистрация

bitok.xyz

» » Прачечная / The Laundromat (2019) WEBRip [H.265] [10-bit] торрент скачать бесплатно


    Прачечная / The Laundromat (2019) WEBRip [H.265] [10-bit] торрент скачать бесплатно

    Дата: 27-10-2019, 05:00 | .torrent скачали: 0

    Прачечная / The Laundromat (2019) WEBRip [H.265] [10-bit]Производство: США, Anonymous Content, Fingerprint Releasing, Netflix
    Жанр: Драма, комедия, триллер, экранизация
    Режиссер: Стивен Содерберг

    Актеры
    Гэри Олдман, Мэрил Стрип, Шэрон Стоун, Мелисса Рауш, Дэвид Швиммер, Антонио Бандерас, Шошана Буш, Джеймс Кромуэлл, Роберт Патрик, Маттиас Шонартс

    Описание

    Фильм основан на книге Джейка Бернштейна Скрытый мир: о расследовании Панамского досье. В распоряжении журналистов оказалось 2, 6 терабайта документов с информацией об офшорных счетах множества нынешних и бывших мировых лидеров, высокопоставленных чиновников и известных людей.

    Рейтинг MPAA: R (лицам до 17 лет обязательно присутствие взрослого)
    Дата мировой премьеры: 1 сентября 2019
    Продолжительность: 01: 36: 02
    Качество видео: WEBRip
    Перевод: Дублированный (Невафильм)
    Субтитры: Русский (форс., полные), английские (SDH)
    Видео: HEVC/H.265, 1024x576, ~1913 Kbps
    Аудио 1: AC3, 2 ch, 160 Kbps | Русский (DUB)
    Аудио 2: AC3, 2 ch, 160 Kbps | Английский
    Общее
    Уникальный идентификатор : 132135533837462201690340206554945673174 (0x636860CD5BAD4CB06E1003DC76F3D7D6)
    Полное имя : The.Laundromat.WEBRip.10bit.HEVC.mkv
    Формат : Matroska
    Версия формата : Version 4/Version 2
    Размер файла : 1, 53 Гбайт
    Продолжительность : 1 ч. 36 м.
    Общий поток : 2278 Кбит/сек
    Программа кодирования : XviD4PSP 8.0.77
    Библиотека кодирования : Lavf58.20.100
    ErrorDetectionType : Per level 1
    ENCODING_INFO : MATROSKA, WEBM MKV 1024 10 бит
    Видео
    Идентификатор : 1
    Формат : HEVC
    Формат/Информация : High Efficiency Video Coding
    Профиль формата : Main10@L4.1@High
    Идентификатор кодека : V_MPEGH/ISO/HEVC
    Продолжительность : 1 ч. 36 м.
    Битрейт : 1913 Кбит/сек
    Ширина : 1024 пикселя
    Высота : 576 пикселей
    Соотношение сторон : 16: 9
    Режим частоты кадров : Постоянный
    Частота кадров : 24, 000 кадра/сек
    Цветовое пространство : YUV
    Субдискретизация насыщенности : 4: 2: 0
    Битовая глубина : 10 бит
    Бит/(Пиксели*Кадры) : 0.135
    Размер потока : 1, 28 Гбайт (84%)
    Язык : English
    Default : Да
    Forced : Нет
    Цветовой диапазон : Full
    ENCODING_INFO : H264 HEVC NVENC VBR 2000kbps HQ
    Аудио #1
    Идентификатор : 2
    Формат : AC-3
    Формат/Информация : Audio Coding 3
    Параметр Endianness формата : Big
    Идентификатор кодека : A_AC3
    Продолжительность : 1 ч. 36 м.
    Вид битрейта : Постоянный
    Битрейт : 160 Кбит/сек
    Каналы : 2 канала
    Расположение каналов : Front: L R
    Частота : 48, 0 КГц
    Частота кадров : 31, 250 кадров/сек (1536 SPF)
    Битовая глубина : 16 бит
    Метод сжатия : С потерями
    Размер потока : 110 Мбайт (7%)
    Заголовок : rus
    Язык : Russian
    ServiceKind/String : Complete Main
    Default : Да
    Forced : Нет
    ENCODING_INFO : EAC3 AC3 CBR 160kbps
    Аудио #2
    Идентификатор : 3
    Формат : AC-3
    Формат/Информация : Audio Coding 3
    Параметр Endianness формата : Big
    Идентификатор кодека : A_AC3
    Продолжительность : 1 ч. 36 м.
    Вид битрейта : Постоянный
    Битрейт : 160 Кбит/сек
    Каналы : 2 канала
    Расположение каналов : Front: L R
    Частота : 48, 0 КГц
    Частота кадров : 31, 250 кадров/сек (1536 SPF)
    Битовая глубина : 16 бит
    Метод сжатия : С потерями
    Размер потока : 110 Мбайт (7%)
    Заголовок : eng
    Язык : English
    ServiceKind/String : Complete Main
    Default : Нет
    Forced : Нет
    ENCODING_INFO : EAC3 AC3 CBR 160kbps
    Текст #1
    Идентификатор : 4
    Формат : UTF-8
    Идентификатор кодека : S_TEXT/UTF8
    Идентификатор кодека/Информация : UTF-8 Plain Text
    Заголовок : rusForced
    Язык : Russian
    Default : Да
    Forced : Да
    ENCODING_INFO : SUBRIP COPY Быстрое
    Текст #2
    Идентификатор : 5
    Формат : UTF-8
    Идентификатор кодека : S_TEXT/UTF8
    Идентификатор кодека/Информация : UTF-8 Plain Text
    Заголовок : rusFull
    Язык : Russian
    Default : Нет
    Forced : Нет
    ENCODING_INFO : SUBRIP COPY Быстрое
    Текст #3
    Идентификатор : 6
    Формат : UTF-8
    Идентификатор кодека : S_TEXT/UTF8
    Идентификатор кодека/Информация : UTF-8 Plain Text
    Заголовок : engSDH
    Язык : English
    Default : Нет
    Forced : Нет
    ENCODING_INFO : SUBRIP COPY Быстрое

    Скриншоты для ознакомления



    Все одноименные релизы в Клубе
    Время раздачи: 19-23 (до появления первых 3-5 скачавших)

    Онлайн видео Прачечная



    Прачечная/The Laundromat (2019) WEBRip [H.265] [10-bit]
    Рейтинг →
     (голосов: 1, оценка 4/5, голосовать можно 1 раз )

    Другие торренты по теме:

  • Прачечная / The Laundromat (2019) WEBRip [H.264 / 1080p-LQ]
  • Прачечная / The Laundromat (2019) WEBRip [H.264 / 720p-LQ]


    • Комментарии (0):

      Информация

      Информация

        Посетители, находящиеся в группе Гости, не могут оставлять комментарии в данной новости.

        ↓ Меню




        ↓ Опрос

        Вы добавили сайт в закладки?
        Да
        Нет


        Популярное