.
Авторизация | Регистрация

bitok.xyz

» » Цепь убийств / Kill Chain (2019) WEB-DLRip [H.265] [10-bit] [MVO] торрент скачать бесплатно


    Цепь убийств / Kill Chain (2019) WEB-DLRip [H.265] [10-bit] [MVO] торрент скачать бесплатно

    Дата: 27-10-2019, 05:00 | .torrent скачали: 0

    Цепь убийств / Kill Chain (2019) WEB-DLRip [H.265] [10-bit] [MVO]Производство: США/Cinetel Films, ETA Films, Killing Link Production
    Жанр: Триллер
    Режиссер: Кен Сэнзел

    Актеры
    Николас Кейдж, Райан Квантен, Алими Баллард, Энрико Колантони, Анабель Акоста, Энджи Сепеда, Джон Мак, Эдди Мартинес, Педро Кальво, Луна Бакстер

    Описание

    Согласно сюжету кинофильма, три незнакомца должны сделать всё возможное, чтобы разрешить сложившийся конфликт, к которому жизнь их совершенно не готовила.

    Рейтинг MPAA: R (лицам до 17 лет обязательно присутствие взрослого)
    Дата мировой премьеры: 18 октября 2019
    Продолжительность: 01: 31: 18
    Качество видео: WEB-DLRip
    Перевод: Многоголосый закадровый, любительский (AlphaProject)
    Субтитры: Английские, американские
    Видео: HEVC/H.265, 1024x544, ~1981 kbps
    Аудио 1: AC3, 2 ch, 160 Kbps | Русский
    Аудио 2: AC3, 2 ch, 160 Kbps | Английский
    Общее
    Уникальный идентификатор : 191003172964224300822451285035135540596 (0x8FB1DF7ECB56F3AF867B5ECD124C1D74)
    Полное имя : Kill.Chain.2019.WEB-DLRip.10bit.HEVC.mkv
    Формат : Matroska
    Версия формата : Version 4/Version 2
    Размер файла : 1, 50 Гбайт
    Продолжительность : 1 ч. 31 м.
    Общий поток : 2347 Кбит/сек
    Программа кодирования : XviD4PSP 8.0.77
    Библиотека кодирования : Lavf58.20.100
    ErrorDetectionType : Per level 1
    ENCODING_INFO : MATROSKA, WEBM MKV 1024 10 бит
    Видео
    Идентификатор : 1
    Формат : HEVC
    Формат/Информация : High Efficiency Video Coding
    Профиль формата : Main10@L4.1@High
    Идентификатор кодека : V_MPEGH/ISO/HEVC
    Продолжительность : 1 ч. 31 м.
    Битрейт : 1981 Кбит/сек
    Ширина : 1024 пикселя
    Высота : 554 пикселя
    Соотношение сторон : 1, 85: 1
    Режим частоты кадров : Постоянный
    Частота кадров : 23, 976 (24000/1001) кадра/сек
    Цветовое пространство : YUV
    Субдискретизация насыщенности : 4: 2: 0
    Битовая глубина : 10 бит
    Бит/(Пиксели*Кадры) : 0.146
    Размер потока : 1, 26 Гбайт (84%)
    Язык : English
    Default : Да
    Forced : Нет
    Цветовой диапазон : Limited
    Основные цвета : BT.709
    Характеристики трансфера : BT.709
    Коэффициенты матрицы : BT.709
    ENCODING_INFO : H264 HEVC NVENC VBR 2000kbps HQ
    Аудио #1
    Идентификатор : 2
    Формат : AC-3
    Формат/Информация : Audio Coding 3
    Параметр Endianness формата : Big
    Идентификатор кодека : A_AC3
    Продолжительность : 1 ч. 31 м.
    Вид битрейта : Постоянный
    Битрейт : 160 Кбит/сек
    Каналы : 2 канала
    Расположение каналов : Front: L R
    Частота : 48, 0 КГц
    Частота кадров : 31, 250 кадров/сек (1536 SPF)
    Битовая глубина : 16 бит
    Метод сжатия : С потерями
    Размер потока : 104 Мбайт (7%)
    Язык : Russian
    ServiceKind/String : Complete Main
    Default : Да
    Forced : Нет
    ENCODING_INFO : AC3 AC3 CBR 160kbps
    Аудио #2
    Идентификатор : 3
    Формат : AC-3
    Формат/Информация : Audio Coding 3
    Параметр Endianness формата : Big
    Идентификатор кодека : A_AC3
    Продолжительность : 1 ч. 31 м.
    Вид битрейта : Постоянный
    Битрейт : 160 Кбит/сек
    Каналы : 2 канала
    Расположение каналов : Front: L R
    Частота : 48, 0 КГц
    Частота кадров : 31, 250 кадров/сек (1536 SPF)
    Битовая глубина : 16 бит
    Метод сжатия : С потерями
    Размер потока : 104 Мбайт (7%)
    Язык : English
    ServiceKind/String : Complete Main
    Default : Нет
    Forced : Нет
    ENCODING_INFO : EAC3 AC3 CBR 160kbps
    Текст #1
    Идентификатор : 4
    Формат : UTF-8
    Идентификатор кодека : S_TEXT/UTF8
    Идентификатор кодека/Информация : UTF-8 Plain Text
    Заголовок : UK
    Язык : English
    Default : Да
    Forced : Нет
    ENCODING_INFO : SUBRIP COPY Быстрое
    Текст #2
    Идентификатор : 5
    Формат : UTF-8
    Идентификатор кодека : S_TEXT/UTF8
    Идентификатор кодека/Информация : UTF-8 Plain Text
    Заголовок : UK SDH
    Язык : English
    Default : Нет
    Forced : Нет
    ENCODING_INFO : SUBRIP COPY Быстрое
    Текст #3
    Идентификатор : 6
    Формат : UTF-8
    Идентификатор кодека : S_TEXT/UTF8
    Идентификатор кодека/Информация : UTF-8 Plain Text
    Заголовок : US SDH
    Язык : English
    Default : Нет
    Forced : Нет
    ENCODING_INFO : SUBRIP COPY Быстрое
    Текст #4
    Идентификатор : 7
    Формат : UTF-8
    Идентификатор кодека : S_TEXT/UTF8
    Идентификатор кодека/Информация : UTF-8 Plain Text
    Заголовок : US
    Язык : English
    Default : Нет
    Forced : Нет
    ENCODING_INFO : SUBRIP COPY Быстрое
    Меню
    00: 00: 00.000 : : Studio Logo
    00: 00: 38.000 : : Unexpected visitors come to the hotel
    00: 06: 02.000 : : Opening Credits
    00: 07: 47.000 : : Another day at the office
    00: 11: 13.000 : : A suspicious sniper
    00: 20: 28.000 : : A change in the plan
    00: 27: 40.000 : : Playing mind games
    00: 36: 46.000 : : A desperate plan for escape
    00: 42: 06.000 : : Time to steal a ride
    00: 45: 44.000 : : Checking in at the Hotel Franco
    00: 52: 09.000 : : Tough negotiations
    00: 59: 59.000 : : Choosing a side
    01: 06: 36.000 : : Time for a story
    01: 16: 00.000 : : The hotel becomes a war zone
    01: 22: 42.000 : : Tying up loose ends
    01: 27: 46.000 : : End Credits

    Скриншоты для ознакомления



    Все одноименные релизы в Клубе
    Время раздачи: 19-23 (до появления первых 3-5 скачавших)

    Онлайн видео Цепь убийств



    Цепь убийств/Kill Chain (2019) WEB-DLRip [H.265] [10-bit] [MVO]
    Рейтинг →
     (голосов: 1, оценка 5/5, голосовать можно 1 раз )

    Другие торренты по теме:

  • Цепь убийств / Kill Chain (2019) WEBRip [H.264 / 720p] [MVO]
  • Цепь убийств / Kill Chain (2019) WEBRip [H.264 / 1080p] [MVO]


    • Комментарии (0):

      Информация

      Информация

        Посетители, находящиеся в группе Гости, не могут оставлять комментарии в данной новости.

        ↓ Меню




        ↓ Опрос

        Вы добавили сайт в закладки?
        Да
        Нет


        Популярное