.
Авторизация | Регистрация

bitok.xyz

» » Меня зовут Долемайт / Dolemite Is My Name (2018) WEB-DLRip [H.265] [10-bit] торрент скачать бесплатно


    Меня зовут Долемайт / Dolemite Is My Name (2018) WEB-DLRip [H.265] [10-bit] торрент скачать бесплатно

    Дата: 27-10-2019, 05:00 | .torrent скачали: 0

    Меня зовут Долемайт / Dolemite Is My Name (2018) WEB-DLRip [H.265] [10-bit]Производство: США/NetFlix, Davis Entertainment
    Жанр: Драма, комедия, биография
    Режиссер: Крэйг Брюэр

    Актеры
    Эдди Мёрфи, Коди Смит-Макфи, Уэсли Снайпс, Кигэн-Майкл Ки, Крис Рок, Крэйг Робинсон, Снуп Догг, Джамал Льюис, Майк Эппс, Ти Ай

    Описание

    Фильм рассказывает историю жизни Руди Рэя Мура, который был многим известен псевдонимом Долемайт. Его карьера взлетела, когда он стал снимать в 1970-х фильмы в жанре блэксплотейшна - про крутых чернокожих парней, которые с легкостью решают любые проблемы своей харизмой, силой и пистолетом...

    Рейтинг MPAA: R (лицам до 17 лет обязательно присутствие взрослого)
    Дата мировой премьеры: 7 сентября 2019
    Продолжительность: 01: 58: 16
    Качество видео: WEB-DLRip
    Перевод: Дублированный (NetFlix)
    Субтитры: Русские (полные), английские (полные, SDH)
    Видео: HEVC/H.265, 720x360, ~1955 Kbps
    Аудио 1: AC3, 2 ch, 160 Kbps - Русский
    Аудио 2: AC3, 2 ch, 160 Kbps - Английский
    Общее
    Уникальный идентификатор : 313582780175936738698091774222667673442 (0xEBE9D8BD4D0CC665BE536DEBC58CEF62)
    Полное имя : Dolemite.Is.My.Name.2019.WEB-DLRip.10bit.HEVC.mkv
    Формат : Matroska
    Версия формата : Version 4/Version 2
    Размер файла : 1, 92 Гбайт
    Продолжительность : 1 ч. 58 м.
    Общий поток : 2322 Кбит/сек
    Название фильма : Dolemite Is My Name 2019
    Программа кодирования : XviD4PSP 8.0.77
    Библиотека кодирования : Lavf58.20.100
    ErrorDetectionType : Per level 1
    ENCODING_INFO : MATROSKA, WEBM MKV
    Видео
    Идентификатор : 1
    Формат : HEVC
    Формат/Информация : High Efficiency Video Coding
    Профиль формата : Main10@L4.1@High
    Идентификатор кодека : V_MPEGH/ISO/HEVC
    Продолжительность : 1 ч. 58 м.
    Битрейт : 1955 Кбит/сек
    Ширина : 720 пикселей
    Высота : 360 пикселей
    Соотношение сторон : 2, 000
    Режим частоты кадров : Постоянный
    Частота кадров : 24, 000 кадра/сек
    Цветовое пространство : YUV
    Субдискретизация насыщенности : 4: 2: 0
    Битовая глубина : 10 бит
    Бит/(Пиксели*Кадры) : 0.314
    Размер потока : 1, 62 Гбайт (84%)
    Язык : English
    Default : Да
    Forced : Нет
    Цветовой диапазон : Full
    ENCODING_INFO : H264 HEVC NVENC VBR 2000kbps HQ
    Аудио #1
    Идентификатор : 2
    Формат : AC-3
    Формат/Информация : Audio Coding 3
    Параметр Endianness формата : Big
    Идентификатор кодека : A_AC3
    Продолжительность : 1 ч. 58 м.
    Вид битрейта : Постоянный
    Битрейт : 160 Кбит/сек
    Каналы : 2 канала
    Расположение каналов : Front: L R
    Частота : 48, 0 КГц
    Частота кадров : 31, 250 кадров/сек (1536 SPF)
    Битовая глубина : 16 бит
    Метод сжатия : С потерями
    Размер потока : 135 Мбайт (7%)
    Заголовок : Netflix
    Язык : Russian
    ServiceKind/String : Complete Main
    Default : Да
    Forced : Нет
    ENCODING_INFO : EAC3 AC3 CBR 160kbps
    Аудио #2
    Идентификатор : 3
    Формат : AC-3
    Формат/Информация : Audio Coding 3
    Параметр Endianness формата : Big
    Идентификатор кодека : A_AC3
    Продолжительность : 1 ч. 58 м.
    Вид битрейта : Постоянный
    Битрейт : 160 Кбит/сек
    Каналы : 2 канала
    Расположение каналов : Front: L R
    Частота : 48, 0 КГц
    Частота кадров : 31, 250 кадров/сек (1536 SPF)
    Битовая глубина : 16 бит
    Метод сжатия : С потерями
    Размер потока : 135 Мбайт (7%)
    Заголовок : Original
    Язык : English
    ServiceKind/String : Complete Main
    Default : Нет
    Forced : Нет
    ENCODING_INFO : EAC3 AC3 CBR 160kbps
    Текст #1
    Идентификатор : 4
    Формат : UTF-8
    Идентификатор кодека : S_TEXT/UTF8
    Идентификатор кодека/Информация : UTF-8 Plain Text
    Заголовок : Full
    Язык : Russian
    Default : Да
    Forced : Нет
    ENCODING_INFO : SUBRIP COPY Быстрое
    Текст #2
    Идентификатор : 5
    Формат : UTF-8
    Идентификатор кодека : S_TEXT/UTF8
    Идентификатор кодека/Информация : UTF-8 Plain Text
    Заголовок : Full
    Язык : English
    Default : Нет
    Forced : Нет
    ENCODING_INFO : SUBRIP COPY Быстрое
    Текст #3
    Идентификатор : 6
    Формат : UTF-8
    Идентификатор кодека : S_TEXT/UTF8
    Идентификатор кодека/Информация : UTF-8 Plain Text
    Заголовок : SDH
    Язык : English
    Default : Нет
    Forced : Нет
    ENCODING_INFO : SUBRIP COPY Быстрое

    Скриншоты для ознакомления


    Все одноименные релизы в Клубе
    Время раздачи: 19-23 (до появления первых 3-5 скачавших)

    Онлайн видео Меня зовут Долемайт



    Меня зовут Долемайт/Dolemite Is My Name (2018) WEB-DLRip [H.265] [10-bit]
    Рейтинг →
     (голосов: 1, оценка 4/5, голосовать можно 1 раз )

    Другие торренты по теме:

  • Меня зовут Долемайт / Dolemite Is My Name (2019) WEB-DLRip [H.264]
  • Как меня зовут (2014) WEBRip скачать через торрент бесплатно
  • Как меня зовут (2014) WEB-DL [H.264 / 720p-LQ] скачать через торрент бесплатно
  • Как меня зовут (2014) WEB-DL [H.264 / 1080p-LQ] скачать через торрент бесплатно
  • Меня зовут Никто / Il mio nome е Nessuno (1973) BDRip [H.264 / 720р-LQ] скачать через торрент бесплатно
  • Меня зовут Ойген / Mein Name ist Eugen (2005) BDRip [H.264 / 1080p-LQ] [VO] скачать через торрент бесплатно
  • Меня зовут Никто / Il mio nome е Nessuno (1973) BDRemux [H.264 / 1080p]
  • Меня зовут Танино / My Name Is Tanino (2002) DVDRip [IT / EN Sub]


    • Комментарии (0):

      Информация

      Информация

        Посетители, находящиеся в группе Гости, не могут оставлять комментарии в данной новости.

        ↓ Меню




        ↓ Опрос

        Вы добавили сайт в закладки?
        Да
        Нет


        Популярное