.
Авторизация | Регистрация

bitok.xyz

» » Ангел мой / Angel of Mine (2019) BDRip [H.265 / 1080p] [10-bit] [PR] торрент скачать бесплатно


    Ангел мой / Angel of Mine (2019) BDRip [H.265 / 1080p] [10-bit] [PR] торрент скачать бесплатно

    Дата: 27-10-2019, 05:00 | .torrent скачали: 1

    Ангел мой / Angel of Mine (2019) BDRip [H.265 / 1080p] [10-bit] [PR]Производство: Австралия, США/Magna Entertainment, Garlin Pictures, R7 Entertainment
    Жанр: Триллер, драма, детектив
    Режиссер: Ким Фаррант
    Продюсер: Су Армстронг, Брайан Р. Эттинг, Джош Х. Эттинг

    Актеры
    Нуми Рапас, Ивонн Страховски, Люк Эванс, Ребекка Бауэр, Финн Литтл, Анника Уайтели, Пип Миллер, Трэйси Манн, Ричард Роксбург, Инди Серафин

    Описание

    Несколько лет Лиззи не может смириться с потерей дочери, погибшей при пожаре. Но однажды она знакомится с чужой девочкой и принимает ее за своего потерянного ребенка.

    Возраст: 16+ (зрителям, достигшим 16 лет)
    Рейтинг MPAA: R (лицам до 17 лет обязательно присутствие взрослого)
    Дата мировой премьеры: 14 августа 2019
    Дата российской премьеры: 15 августа 2019, MEGOGO Distribution
    Продолжительность: 01: 38: 38
    Качество видео: BDRip (1080p)
    Перевод: Дублированный (iTunes)
    Субтитры: Английские (полные, SDH)
    Видео: HEVC/H.265, 1920x802, 8612 Kbps
    Аудио 1: AC3, 6 ch, 384 Kbps - Русский
    Аудио 2: AC3, 6 ch, 640 Kbps - Английский
    Общее
    Уникальный идентификатор : 277176166816484006230459890726748277301 (0xD086301DC4C76C4B722840B6EAEBCA35)
    Полное имя : Angel.of.Mine.2019.BDRip.1080p.10bit.HEVC.mkv
    Формат : Matroska
    Версия формата : Version 4/Version 2
    Размер файла : 6, 77 Гбайт
    Продолжительность : 1 ч. 38 м.
    Общий поток : 9831 Кбит/сек
    Название фильма : Angel of Mine 2019
    Программа кодирования : XviD4PSP 8.0.77
    Библиотека кодирования : Lavf58.20.100
    ErrorDetectionType : Per level 1
    ENCODING_INFO : MATROSKA, WEBM MKV
    Видео
    Идентификатор : 1
    Формат : HEVC
    Формат/Информация : High Efficiency Video Coding
    Профиль формата : Main10@L4.1@High
    Идентификатор кодека : V_MPEGH/ISO/HEVC
    Продолжительность : 1 ч. 38 м.
    Битрейт : 8612 Кбит/сек
    Ширина : 1920 пикселей
    Высота : 802 пикселя
    Соотношение сторон : 2, 40: 1
    Режим частоты кадров : Постоянный
    Частота кадров : 23, 976 (24000/1001) кадра/сек
    Цветовое пространство : YUV
    Субдискретизация насыщенности : 4: 2: 0
    Битовая глубина : 10 бит
    Бит/(Пиксели*Кадры) : 0.233
    Размер потока : 5, 93 Гбайт (88%)
    Язык : English
    Default : Да
    Forced : Нет
    Цветовой диапазон : Limited
    Основные цвета : BT.709
    Характеристики трансфера : BT.709
    Коэффициенты матрицы : BT.709
    ENCODING_INFO : H264 HEVC NVENC VBR 9000kbps HQ
    Аудио #1
    Идентификатор : 2
    Формат : AC-3
    Формат/Информация : Audio Coding 3
    Параметр Endianness формата : Big
    Идентификатор кодека : A_AC3
    Продолжительность : 1 ч. 38 м.
    Вид битрейта : Постоянный
    Битрейт : 384 Кбит/сек
    Каналы : 6 каналов
    Расположение каналов : Front: L C R, Side: L R, LFE
    Частота : 48, 0 КГц
    Частота кадров : 31, 250 кадров/сек (1536 SPF)
    Битовая глубина : 16 бит
    Метод сжатия : С потерями
    Размер потока : 271 Мбайт (4%)
    Заголовок : iTunes
    Язык : Russian
    ServiceKind/String : Complete Main
    Default : Да
    Forced : Нет
    ENCODING_INFO : AC3 COPY Безопасное
    Аудио #2
    Идентификатор : 3
    Формат : AC-3
    Формат/Информация : Audio Coding 3
    Параметр Endianness формата : Big
    Идентификатор кодека : A_AC3
    Продолжительность : 1 ч. 38 м.
    Вид битрейта : Постоянный
    Битрейт : 640 Кбит/сек
    Каналы : 6 каналов
    Расположение каналов : Front: L C R, Side: L R, LFE
    Частота : 48, 0 КГц
    Частота кадров : 31, 250 кадров/сек (1536 SPF)
    Битовая глубина : 16 бит
    Метод сжатия : С потерями
    Размер потока : 452 Мбайт (7%)
    Язык : English
    ServiceKind/String : Complete Main
    Default : Нет
    Forced : Нет
    ENCODING_INFO : AC3 COPY Безопасное
    Текст #1
    Идентификатор : 4
    Формат : UTF-8
    Идентификатор кодека : S_TEXT/UTF8
    Идентификатор кодека/Информация : UTF-8 Plain Text
    Заголовок : Full
    Язык : English
    Default : Да
    Forced : Нет
    ENCODING_INFO : SUBRIP COPY Быстрое
    Текст #2
    Идентификатор : 5
    Формат : UTF-8
    Идентификатор кодека : S_TEXT/UTF8
    Идентификатор кодека/Информация : UTF-8 Plain Text
    Заголовок : SDH
    Язык : English
    Default : Нет
    Forced : Нет
    ENCODING_INFO : SUBRIP COPY Быстрое
    Меню
    00: 00: 00.000 : : Chapter 1
    00: 12: 43.554 : : Chapter 2
    00: 26: 41.182 : : Chapter 3
    00: 41: 32.615 : : Chapter 4
    00: 53: 50.769 : : Chapter 5
    01: 06: 20.768 : : Chapter 6
    01: 19: 07.743 : : Chapter 7
    01: 34: 11.562 : : Chapter 8

    Скриншоты для ознакомления



    Все одноименные релизы в Клубе
    Время раздачи: 11-15 (до первых 3-5 скачавших)

    Онлайн видео Ангел мой



    Ангел мой/Angel of Mine (2019) BDRip [H.265/1080p] [10-bit] [PR]
    Рейтинг →
     (голосов: 1, оценка 3/5, голосовать можно 1 раз )

    Другие торренты по теме:

  • Освобожденный ангел / Angel Unchained (1970) DVDRip
  • Ангел / Angel (2007) DVDRip [H.264]
  • Ангел, ангел, вниз мы идем / Культ проклятых / Cult of the Damned / Angel, Angel, Down We Go (1969) HDTV [H.264 / 1080i] скачать через торрент бесплатно
  • Ангел-А / Angel-A (2005) BDRip [576p] iPad скачать через торрент бесплатно
  • Ангел-хранитель / The Guardian Angel (2018) WEB-DLRip [MVO] [AD]
  • Ангел-А / Angel-A (2005) [1080p] BDRemux
  • Ангел-А / Angel-A (2005) BDRip [1080p] ATV
  • Немезида 4: Ангел смерти / Nemesis 4: Death Angel (1996) BDRip [H.264] [VO]


    • Комментарии (0):

      Информация

      Информация

        Посетители, находящиеся в группе Гости, не могут оставлять комментарии в данной новости.

        ↓ Меню




        ↓ Опрос

        Вы добавили сайт в закладки?
        Да
        Нет


        Популярное