.
Авторизация | Регистрация

bitok.xyz

» » Соловей / The Nightingale (2018) WEB-DL [H.264 / 1080p] [AVO] торрент скачать бесплатно


    Соловей / The Nightingale (2018) WEB-DL [H.264 / 1080p] [AVO] торрент скачать бесплатно

    Дата: 27-10-2019, 05:00 | .torrent скачали: 2

    Соловей / The Nightingale (2018) WEB-DL [H.264 / 1080p] [AVO]Производство: Австралия, США, Канада, Causeway Films, Made Up Stories, Adelaide Film Festival
    Жанр: Триллер, драма, приключения
    Режиссер: Дженнифер Кент

    Актеры
    Эшлинг Франчози, Сэм Клафлин, Байкали Ганамбарр, Дэймон Херриман, Гарри Гринвуд, Ивен Лесли, Чарли Шотуэлл, Майкл Шисби, Мэтью Сандерлэнд, Манолья Маймуру

    Описание

    1825 год, Австралия. Молодая ирландка Клэр преследует британских офицеров, чтобы отомстить за убийство мужа и ребёнка. Во время своего путешествия она встречает аборигена Билли, который соглашается ей помочь.

    Возраст: 18+ (зрителям, достигшим 18 лет. запрещено для детей)
    Рейтинг MPAA: R (лицам до 17 лет обязательно присутствие взрослого)
    Дата мировой премьеры: 19 марта 2018
    Дата российской премьеры: -
    Релиз от: BadBajo
    Продолжительность: 02: 16: 06
    Качество видео: WEB-DL
    Перевод: Авторский одноголосый - А.Важенин (BadBajo)
    Субтитры: Английские (отключаемые)
    Видео: AVC/H.264, 1440х1080, ~7 282 Kbps
    Аудио: AC3, 6 ch, 640 Kbps - Русский (BadBajo)
    Аудио: Е-AC3, 6 ch, 640 Kbps - Английский
    General
    Unique ID : 311735333884051290648193311131424581456 (0xEA860A9AD5982687E23DD5DC8110E750)
    Complete name : The.Nightingale.2018.1080p.AMZN.WEB-DL.DDP5.1.H.264_rus_BadBajo.mkv
    Format : Matroska
    Format version : Version 4
    File size : 8.14 GiB
    Duration : 2 h 16 min
    Overall bit rate : 8 564 kb/s
    Movie name : The.Nightingale.2018.1080p.AMZN.WEB-DL.DDP5.1.H.264_rus_BadBajo
    Encoded date : UTC 2019-10-26 03: 53: 31
    Writing application : mkvmerge v33.1.0 (\'Primrose\') 64-bit
    Writing library : libebml v1.3.7 + libmatroska v1.5.0
    Cover : Yes
    Attachments : cover.jpg/small_cover.jpg
    Video
    ID : 1
    Format : AVC
    Format/Info : Advanced Video Codec
    Format profile : High@L4
    Format settings : CABAC/4 Ref Frames
    Format settings, CABAC : Yes
    Format settings, ReFrames : 4 frames
    Codec ID : V_MPEG4/ISO/AVC
    Duration : 2 h 16 min
    Bit rate mode : Constant
    Bit rate : 7 282 kb/s
    Nominal bit rate : 10 000 kb/s
    Width : 1 440 pixels
    Height : 1 080 pixels
    Display aspect ratio : 4: 3
    Frame rate mode : Constant
    Frame rate : 24.000 FPS
    Color space : YUV
    Chroma subsampling : 4: 2: 0
    Bit depth : 8 bits
    Scan type : Progressive
    Bits/(Pixel*Frame) : 0.195
    Stream size : 6.92 GiB (85%)
    Default : Yes
    Forced : No
    Color range : Limited
    Color primaries : BT.709
    Transfer characteristics : BT.709
    Matrix coefficients : BT.709
    Audio #1
    ID : 2
    Format : AC-3
    Format/Info : Audio Coding 3
    Commercial name : Dolby Digital
    Codec ID : A_AC3
    Duration : 2 h 16 min
    Bit rate mode : Constant
    Bit rate : 640 kb/s
    Channel(s) : 6 channels
    Channel layout : L R C LFE Ls Rs
    Sampling rate : 48.0 kHz
    Frame rate : 31.250 FPS (1536 SPF)
    Bit depth : 16 bits
    Compression mode : Lossy
    Stream size : 623 MiB (7%)
    Title : The.Nightingale.2018.AC3_rus_BadBajo
    Language : Russian
    Service kind : Complete Main
    Default : Yes
    Forced : Yes
    Audio #2
    ID : 3
    Format : E-AC-3
    Format/Info : Enhanced AC-3
    Commercial name : Dolby Digital Plus
    Codec ID : A_EAC3
    Duration : 2 h 16 min
    Bit rate mode : Constant
    Bit rate : 640 kb/s
    Channel(s) : 6 channels
    Channel layout : L R C LFE Ls Rs
    Sampling rate : 48.0 kHz
    Frame rate : 31.250 FPS (1536 SPF)
    Compression mode : Lossy
    Stream size : 623 MiB (7%)
    Title : The.Nightingale.2018.1080p.EAC3_eng
    Language : English
    Service kind : Complete Main
    Default : No
    Forced : No
    Text #1
    ID : 4
    Format : UTF-8
    Codec ID : S_TEXT/UTF8
    Codec ID/Info : UTF-8 Plain Text
    Duration : 2 h 7 min
    Bit rate : 35 b/s
    Count of elements : 1263
    Stream size : 33.2 KiB (0%)
    Language : English
    Default : No
    Forced : No
    Text #2
    ID : 5
    Format : UTF-8
    Codec ID : S_TEXT/UTF8
    Codec ID/Info : UTF-8 Plain Text
    Duration : 2 h 11 min
    Bit rate : 37 b/s
    Count of elements : 1524
    Stream size : 36.6 KiB (0%)
    Title : SDH
    Language : English
    Default : No
    Forced : No


    Онлайн видео Соловей



    Соловей/The Nightingale (2018) WEB-DL [H.264/1080p] [AVO]
    Рейтинг →
     (голосов: 1, оценка 4/5, голосовать можно 1 раз )

    Другие торренты по теме:

  • Соловей / Nightingale (2015) HDTVRip скачать через торрент бесплатно
  • Соловей / Nightingale (2015) HDTV [H.264 / 1080i] скачать через торрент бесплатно
  • Соловей / The Nightingale (2018) WEB-DLRip [MVO] [AD]
  • Соловей / The Nightingale (2018) WEB-DLRip [H.264 / 720p-LQ] [MVO] [AD]


    • Комментарии (0):

      Информация

      Информация

        Посетители, находящиеся в группе Гости, не могут оставлять комментарии в данной новости.

        ↓ Меню




        ↓ Опрос

        Вы добавили сайт в закладки?
        Да
        Нет


        Популярное