.
Авторизация | Регистрация

bitok.xyz

» » Сторож (2019) WEB-DLRip [H.264] торрент скачать бесплатно


    Сторож (2019) WEB-DLRip [H.264] торрент скачать бесплатно

    Дата: 27-10-2019, 05:00 | .torrent скачали: 5

    Сторож (2019) WEB-DLRip [H.264]Производство: Россия | АРТЛАЙТ, Инвада фильм, Yellow, Black White
    Жанр: драма, триллер
    Режиссер: Юрий Быков

    Актеры
    Юрий Быков, Владислав Абашин, Алла Юганова, Александр Кузьмин, Артур Бесчастный, Гела Месхи, Олег Зима, Алексей Симонов, Николай Козак, Дмитрий Блохин

    Описание

    Сорокалетний Влад живёт и работает сторожем в старом санатории под снос. Эта работа нужна ему для того, чтобы жить затворником. Однажды ночью в санатории появляется супружеская пара — Вера и Стас. Они в бегах — их преследуют бывшие друзья и партнёры Стаса. Влад решает помочь супругам, потому что сам скрывается от прошлого. Каждому из героев грозит неминуемая расплата за выбранный однажды неверный жизненный путь, но, помогая друг другу, они попытаются искупить вину за прошлое.

    Возраст: 16+ (зрителям, достигшим 16 лет)
    Дата российской премьеры: 24 октября 2019, КиноПоиск
    Продолжительность: 01: 43: 10
    Качество видео: WEB-DLRip (AVC)
    Субтитры: Отсутствуют
    Видео: AVC/H.264, 1024x424 (2.40: 1), ~1827 kbps, 24.00 fps
    Аудио 1: AC3, 2 ch, 48.0 kHz, 192 kbps - русский
    Аудио 1: AC3, 2 ch, 48.0 kHz, 192 kbps - русский (Ненормативная лексика)
    General
    Unique ID : 125835550293827396931029294949755518661 (0x5EAB0BA1D20377C2751BDC18450FFEC5)
    Complete name : D: _RUSSIAN0_For LookСторож_2019_WEB-DLRip-AVC.mkv
    Format : Matroska
    Format version : Version 4
    File size : 1.59 GiB
    Duration : 1 h 43 min
    Overall bit rate : 2 212 kb/s
    Movie name : Storozh.2019.WEB-DL.(1080p).Getty
    Encoded date : UTC 2019-10-25 08: 47: 18
    Writing application : mkvmerge v32.0.0 (\'Astral Progressions\') 64-bit
    Writing library : libebml v1.3.7 + libmatroska v1.5.0
    Video
    ID : 3
    Format : AVC
    Format/Info : Advanced Video Codec
    Format profile : High@L4.1
    Format settings : CABAC/10 Ref Frames
    Format settings, CABAC : Yes
    Format settings, ReFrames : 10 frames
    Codec ID : V_MPEG4/ISO/AVC
    Duration : 1 h 43 min
    Bit rate : 1 827 kb/s
    Width : 1 024 pixels
    Height : 424 pixels
    Display aspect ratio : 2.40: 1
    Frame rate mode : Constant
    Frame rate : 24.000 FPS
    Color space : YUV
    Chroma subsampling : 4: 2: 0
    Bit depth : 8 bits
    Scan type : Progressive
    Bits/(Pixel*Frame) : 0.175
    Stream size : 1.32 GiB (83%)
    Writing library : x264 core 146 r2538 121396c
    Encoding settings : cabac=1/ref=10/deblock=1: -2: -1/analyse=0x3: 0x133/me=umh/subme=11/psy=1/psy_rd=1.00: 0.08/mixed_ref=1/me_range=32/chroma_me=1/trellis=2/8x8dct=1/cqm=0/deadzone=21, 11/fast_pskip=0/chroma_qp_offset=-3/threads=18/lookahead_threads=3/sliced_threads=0/nr=0/decimate=1/interlaced=0/bluray_compat=0/constrained_intra=0/bframes=11/b_pyramid=2/b_adapt=2/b_bias=0/direct=1/weightb=1/open_gop=0/weightp=2/keyint=250/keyint_min=23/scenecut=40/intra_refresh=0/rc=2pass/mbtree=0/bitrate=1827/ratetol=1.0/qcomp=0.60/qpmin=0/qpmax=69/qpstep=4/cplxblur=20.0/qblur=0.5/ip_ratio=1.40/pb_ratio=1.30/aq=2: 1.00
    Default : Yes
    Forced : No
    Color range : Limited
    Color primaries : BT.709
    Transfer characteristics : BT.709
    Matrix coefficients : BT.709
    Audio #1
    ID : 1
    Format : AC-3
    Format/Info : Audio Coding 3
    Commercial name : Dolby Digital
    Codec ID : A_AC3
    Duration : 1 h 43 min
    Bit rate mode : Constant
    Bit rate : 192 kb/s
    Channel(s) : 2 channels
    Channel layout : L R
    Sampling rate : 48.0 kHz
    Frame rate : 31.250 FPS (1536 SPF)
    Bit depth : 16 bits
    Compression mode : Lossy
    Stream size : 142 MiB (9%)
    Language : Russian
    Service kind : Complete Main
    Default : Yes
    Forced : No
    Audio #2
    ID : 2
    Format : AC-3
    Format/Info : Audio Coding 3
    Commercial name : Dolby Digital
    Codec ID : A_AC3
    Duration : 1 h 43 min
    Bit rate mode : Constant
    Bit rate : 192 kb/s
    Channel(s) : 2 channels
    Channel layout : L R
    Sampling rate : 48.0 kHz
    Frame rate : 31.250 FPS (1536 SPF)
    Bit depth : 16 bits
    Compression mode : Lossy
    Stream size : 142 MiB (9%)
    Title : +18
    Language : Russian
    Service kind : Complete Main
    Default : No
    Forced : No

    Скриншоты для ознакомления



    Все одноименные релизы в Клубе
    Время раздачи: 24/7 (до появления первых 3-5 скачавших)

    Онлайн видео Сторож (2019) WEB



    Сторож (2019) WEB-DLRip [H.264]
    Рейтинг →
     (голосов: 1, оценка 3/5, голосовать можно 1 раз )

    Другие торренты по теме:

  • Сторож (2019) WEB-DLRip
  • Сторож (2019) WEB-DLRip [H.265] [10-bit]


    • Комментарии (0):

      Информация

      Информация

        Посетители, находящиеся в группе Гости, не могут оставлять комментарии в данной новости.

        ↓ Меню




        ↓ Опрос

        Вы добавили сайт в закладки?
        Да
        Нет


        Популярное