.
Авторизация | Регистрация

bitok.xyz

» » Они играют с огнём / Theyre Playing with Fire (1984) BDRemux [H.264 / 1080p] [EN] торрент скачать бесплатно


    Они играют с огнём / Theyre Playing with Fire (1984) BDRemux [H.264 / 1080p] [EN] торрент скачать бесплатно

    Дата: 27-10-2019, 05:00 | .torrent скачали: 0

    Они играют с огнём / Theyre Playing with Fire (1984) BDRemux [H.264 / 1080p] [EN]Производство: США/Hickmar Productions
    Жанр: Триллер, Криминал
    Режиссер: Говард Аведис
    Продюсер: Говард Аведис, Марлен Шмидт, Эрнест Кэй

    Актеры
    Сибил Даннинг, Эрик Браун, Эндрю Прайн, Пол Клеменс, Кейти Стивенс, Джин Бикнелл, Курт Айерс, Доминик Брашиа, Билл Конклин

    Описание

    Преподаватель решает обольстить студента, которого она наняла, как мастера на все руки для работы на ее яхте. Колеблющийся студент сдается своему сексуальному преподавателю, но их роман прерван ее коррумпированным мужем и убийцей в маске.

    Возраст: 18+ (зрителям, достигшим 18 лет. запрещено для детей)
    Рейтинг MPAA: R (лицам до 17 лет обязательно присутствие взрослого)
    Продолжительность: 01: 36: 06
    Качество видео: BDRemux
    Перевод: Отсутствует
    Язык озвучки: Английский
    Субтитры: Отсутствуют
    Видео: AVC/H.264, 1920x1080р, ~25000 kbps
    Аудио: английский, DTS-HD MA, 2 ch, 1559 kbps
    General
    Unique ID : 161458502027918928990948823842054790094 (0x7977C6C10BC43DA0BB9A332382D0DBCE)
    Complete name : F: Новая папка (11)They\'re Playing with Fire 1984 1080p Blu-ray Remux AVC DTS-HD MA 2.0 - KRaLiMaRKo.mkv
    Format : Matroska
    Format version : Version 4
    File size : 17.8 GiB
    Duration : 1 h 36 min
    Overall bit rate mode : Variable
    Overall bit rate : 26.6 Mb/s
    Movie name : They\'re Playing with Fire 1984 1080p Blu-ray Remux AVC DTS-HD MA 2.0 - KRaLiMaRKo
    Encoded date : UTC 2018-10-13 17: 18: 50
    Writing application : mkvmerge v27.0.0 (\'Metropolis\') 64-bit
    Writing library : libebml v1.3.6 + libmatroska v1.4.9
    Video
    ID : 1
    Format : AVC
    Format/Info : Advanced Video Codec
    Format profile : High@L4.1
    Format settings : CABAC/4 Ref Frames
    Format settings, CABAC : Yes
    Format settings, RefFrames : 4 frames
    Format settings, GOP : M=3, N=24
    Codec ID : V_MPEG4/ISO/AVC
    Duration : 1 h 36 min
    Bit rate mode : Variable
    Bit rate : 25.0 Mb/s
    Maximum bit rate : 35.0 Mb/s
    Width : 1 920 pixels
    Height : 1 080 pixels
    Display aspect ratio : 16: 9
    Frame rate mode : Constant
    Frame rate : 23.976 (24000/1001) FPS
    Standard : NTSC
    Color space : YUV
    Chroma subsampling : 4: 2: 0
    Bit depth : 8 bits
    Scan type : Progressive
    Bits/(Pixel*Frame) : 0.503
    Stream size : 16.8 GiB (94%)
    Language : English
    Default : Yes
    Forced : No
    Color range : Limited
    Color primaries : BT.709
    Transfer characteristics : BT.709
    Matrix coefficients : BT.709
    Audio
    ID : 2
    Format : DTS XLL
    Format/Info : Digital Theater Systems
    Commercial name : DTS-HD Master Audio
    Codec ID : A_DTS
    Duration : 1 h 36 min
    Bit rate mode : Variable
    Bit rate : 1 559 kb/s
    Channel(s) : 2 channels
    Channel layout : L R
    Sampling rate : 48.0 kHz
    Frame rate : 93.750 FPS (512 SPF)
    Bit depth : 16 bits
    Compression mode : Lossless
    Stream size : 1.05 GiB (6%)
    Language : English
    Default : Yes
    Forced : No
    Menu
    00: 00: 00.000 : en: 00: 00: 00.000
    00: 09: 47.295 : en: 00: 09: 47.295
    00: 24: 40.187 : en: 00: 24: 40.187
    00: 37: 30.623 : en: 00: 37: 30.623
    00: 49: 02.314 : en: 00: 49: 02.314
    01: 00: 15.862 : en: 01: 00: 15.862
    01: 11: 04.635 : en: 01: 11: 04.635
    01: 21: 59.706 : en: 01: 21: 59.706

    Скриншоты для ознакомления



    Все одноименные релизы в Клубе
    Время раздачи: до появления первых 3-5 скачавших (до появления первых 3-5 скачавших)

    Онлайн видео Они играют с огнём



    Они играют с огнём/Theyre Playing with Fire (1984) BDRemux [H.264/1080p] [EN]
    Рейтинг →
     (голосов: 1, оценка 5/5, голосовать можно 1 раз )

    Другие торренты по теме:

  • Они играют с огнём / Theyre Playing with Fire (1984) DVDRip [H.264] [AVO]


    • Комментарии (0):

      Информация

      Информация

        Посетители, находящиеся в группе Гости, не могут оставлять комментарии в данной новости.

        ↓ Меню




        ↓ Опрос

        Вы добавили сайт в закладки?
        Да
        Нет


        Популярное