.
Авторизация | Регистрация

bitok.xyz

» » Тупой и еще тупее / Dumb & Dumber (1994) BDRip [H.264 / 720p] [UNRATED] торрент скачать бесплатно


    Тупой и еще тупее / Dumb & Dumber (1994) BDRip [H.264 / 720p] [UNRATED] торрент скачать бесплатно

    Дата: 27-10-2019, 05:00 | .torrent скачали: 0

    Тупой и еще тупее / Dumb & Dumber (1994) BDRip [H.264 / 720p] [UNRATED]Производство: США/New Line Cinema, Motion Picture Corporation of America (MPCA)
    Жанр: комедия
    Режиссер: Питер Фаррелли, Бобби Фаррелли

    Актеры
    Джим Керри, Джефф Дэниелс, Лорен Холли, Майк Старр, Карен Даффи, Чарльз Роккет, Виктория Роуэлл, Джо Бэйкер, Хэнк Брандт, Тери Гарр

    Описание

    Два полных придурка, Ллойд Крисмас и Харри Данн пытаются нагнать красивую девушку Мэри Суонсон, чтобы вручить ей потерянный ею чемоданчик-дипломат. Кретинам невдомек, что Мэри обронила его специально, в качестве выкупа по договоренности с бандитами, похитившими ее мужа.
    Ведь внутри лежит кругленькая сумма. На мохнатой машине уникальной марки Овчарка двое идиотов пересекают Америку от Род-Айленда до Колорадо, где и находят обворожительную Мэри, в которую Ллойд уже успел втюриться без памяти.

    Возраст: 16+ (зрителям, достигшим 16 лет)
    Рейтинг MPAA: PG-13 (детям до 13 лет просмотр нежелателен)
    Продолжительность: 01: 52: 50
    Качество видео: BDRip
    Перевод: двухголосый профессиональный, авторский
    Субтитры: русские, английские
    Видео: AVC/H.264, 1280x720, ~5653 kbps
    Аудио 1: AC3, 6 ch, 384 kbps, Русский (AVO А.Гаврилов + вставки П.Гланц на расширенные места)
    Аудио 2: AC3, 2 ch, 192 kbps, Русский (DVO НТВ)
    Аудио 3: AC3, 6 ch, 640 kbps, Русский (DVO П.Гланц и И.Королёва)
    Аудио 4: AC3, 6 ch, 640 kbps, Английский
    Общее
    Уникальный идентификатор : 221883150872837799729016505290104535604 (0xA6ED23F4036DD41082A9D597F7BC7A34)
    Полное имя : D: FILMSDumb.and.Dumber.Unrated.1994.BDRip.720p.mkv
    Формат : Matroska
    Версия формата : Version 4
    Размер файла : 5, 92 Гбайт
    Продолжительность : 1 ч. 52 м.
    Общий поток : 7511 Кбит/сек
    Дата кодирования : UTC 2019-10-26 03: 50: 49
    Программа кодирования : mkvmerge v8.2.0 (\'World of Adventure\') 64bit
    Библиотека кодирования : libebml v1.3.1 + libmatroska v1.4.2
    Видео
    Идентификатор : 1
    Формат : AVC
    Формат/Информация : Advanced Video Codec
    Профиль формата : High@L4.1
    Настройки формата : CABAC/9 Ref Frames
    Параметр CABAC формата : Да
    Параметр RefFrames формата : 9 кадров
    Идентификатор кодека : V_MPEG4/ISO/AVC
    Продолжительность : 1 ч. 52 м.
    Битрейт : 5653 Кбит/сек
    Ширина : 1280 пикселей
    Высота : 720 пикселей
    Соотношение сторон : 16: 9
    Режим частоты кадров : Постоянный
    Частота кадров : 23, 976 кадра/сек
    Цветовое пространство : YUV
    Субдискретизация насыщенности : 4: 2: 0
    Битовая глубина : 8 бит
    Тип развёртки : Прогрессивная
    Бит/(Пиксели*Кадры) : 0.256
    Размер потока : 4, 45 Гбайт (75%)
    Библиотека кодирования : x264 core 65 r1074M b6bb3d4
    Настройки программы : cabac=1/ref=9/deblock=1: -3: -3/analyse=0x3: 0x113/me=umh/subme=9/psy_rd=1, 0: 0, 0/mixed_ref=1/me_range=32/chroma_me=1/trellis=0/8x8dct=1/cqm=2/deadzone=6, 4/chroma_qp_offset=-2/threads=6/nr=0/decimate=1/mbaff=0/bframes=3/b_pyramid=1/b_adapt=2/b_bias=0/direct=3/wpredb=1/keyint=240/keyint_min=24/scenecut=40(pre)/rc=2pass/bitrate=5653/ratetol=1, 0/qcomp=0, 60/qpmin=10/qpmax=51/qpstep=4/cplxblur=20, 0/qblur=0, 5/ip_ratio=1, 40/pb_ratio=1, 30/aq=1: 1, 00
    Язык : English
    Default : Да
    Forced : Нет
    Аудио #1
    Идентификатор : 2
    Формат : AC-3
    Формат/Информация : Audio Coding 3
    Коммерческое название : Dolby Digital
    Идентификатор кодека : A_AC3
    Продолжительность : 1 ч. 52 м.
    Вид битрейта : Постоянный
    Битрейт : 384 Кбит/сек
    Каналы : 6 каналов
    ChannelLayout : L R C LFE Ls Rs
    Частота : 48, 0 КГц
    Частота кадров : 31, 250 кадров/сек (1536 SPF)
    Метод сжатия : С потерями
    Размер потока : 310 Мбайт (5%)
    Заголовок : А.Гаврилов
    Язык : Russian
    ServiceKind/String : Complete Main
    Default : Да
    Forced : Нет
    Аудио #2
    Идентификатор : 3
    Формат : AC-3
    Формат/Информация : Audio Coding 3
    Коммерческое название : Dolby Digital
    Идентификатор кодека : A_AC3
    Продолжительность : 1 ч. 52 м.
    Вид битрейта : Постоянный
    Битрейт : 192 Кбит/сек
    Каналы : 2 канала
    ChannelLayout : L R
    Частота : 48, 0 КГц
    Частота кадров : 31, 250 кадров/сек (1536 SPF)
    Метод сжатия : С потерями
    Размер потока : 155 Мбайт (3%)
    Заголовок : НТВ
    Язык : Russian
    ServiceKind/String : Complete Main
    Default : Нет
    Forced : Нет
    Аудио #3
    Идентификатор : 4
    Формат : AC-3
    Формат/Информация : Audio Coding 3
    Коммерческое название : Dolby Digital
    Идентификатор кодека : A_AC3
    Продолжительность : 1 ч. 52 м.
    Вид битрейта : Постоянный
    Битрейт : 640 Кбит/сек
    Каналы : 6 каналов
    ChannelLayout : L R C LFE Ls Rs
    Частота : 48, 0 КГц
    Частота кадров : 31, 250 кадров/сек (1536 SPF)
    Метод сжатия : С потерями
    Размер потока : 517 Мбайт (9%)
    Заголовок : Glanz AC3 5.1 640 kbps
    Язык : Russian
    ServiceKind/String : Complete Main
    Default : Нет
    Forced : Нет
    Аудио #4
    Идентификатор : 5
    Формат : AC-3
    Формат/Информация : Audio Coding 3
    Коммерческое название : Dolby Digital
    Идентификатор кодека : A_AC3
    Продолжительность : 1 ч. 52 м.
    Вид битрейта : Постоянный
    Битрейт : 640 Кбит/сек
    Каналы : 6 каналов
    ChannelLayout : L R C LFE Ls Rs
    Частота : 48, 0 КГц
    Частота кадров : 31, 250 кадров/сек (1536 SPF)
    Метод сжатия : С потерями
    Размер потока : 517 Мбайт (9%)
    Заголовок : AC3 5.1 640 kbps
    Язык : English
    ServiceKind/String : Complete Main
    Default : Нет
    Forced : Нет
    Текст #1
    Идентификатор : 6
    Формат : UTF-8
    Идентификатор кодека : S_TEXT/UTF8
    Идентификатор кодека/Информация : UTF-8 Plain Text
    Продолжительность : 1 ч. 47 м.
    Битрейт : 73 бит/сек
    ElementCount : 1076
    Размер потока : 57, 6 Кбайт (0%)
    Язык : Russian
    Default : Нет
    Forced : Нет
    Текст #2
    Идентификатор : 7
    Формат : UTF-8
    Идентификатор кодека : S_TEXT/UTF8
    Идентификатор кодека/Информация : UTF-8 Plain Text
    Продолжительность : 1 ч. 51 м.
    Битрейт : 70 бит/сек
    ElementCount : 1948
    Размер потока : 58, 0 Кбайт (0%)
    Язык : English
    Default : Нет
    Forced : Нет


    Онлайн видео Тупой и еще тупее



    Тупой и еще тупее/Dumb & Dumber (1994) BDRip [H.264/720p] [UNRATED]
    Рейтинг →
     (голосов: 1, оценка 3/5, голосовать можно 1 раз )

    Другие торренты по теме:

  • Тупой и еще тупее / Dumb & Dumber (1994) BDRip [H.264 / 720p] [Unrated]
  • Тупой и еще тупее 2 / Dumb and Dumber To (2014) HDTVRip [H.264 / 1080p-LQ] [Трейлер]
  • Тупой и еще тупее / Dumb & Dumber (1994) BDRip [1080p] [Unrated] скачать через торрент бесплатно
  • Тупой и еще тупее 2 / Dumb and Dumber To (2014) CamRip [EN]
  • Тупой и еще тупее 2 / Dumb and Dumber To (2014) CamRip [EN]
  • Тупой и еще тупее 2 / Dumb and Dumber To (2014) HDRip [H.264 / 720p-LQ] [EN / Kor Sub]
  • Тупой и еще тупее 2 / Dumb and Dumber To (2014) WEBRip
  • Тупой и еще тупее 2 / Dumb and Dumber To (2014) WEBRip [H.264 / 720p-LQ]


    • Комментарии (0):

      Информация

      Информация

        Посетители, находящиеся в группе Гости, не могут оставлять комментарии в данной новости.

        ↓ Меню




        ↓ Опрос

        Вы добавили сайт в закладки?
        Да
        Нет


        Популярное