.
Авторизация | Регистрация

bitok.xyz

» » Маска / The Mask (1994) BDRip [H.264 / 720p] торрент скачать бесплатно


    Маска / The Mask (1994) BDRip [H.264 / 720p] торрент скачать бесплатно

    Дата: 27-10-2019, 05:00 | .torrent скачали: 1

    Маска / The Mask (1994) BDRip [H.264 / 720p]Производство: США/Dark Horse Entertainment, New Line Cinema
    Жанр: комедия, фэнтези, криминал
    Режиссер: Чак Рассел

    Актеры
    Джим Керри, Кэмерон Диаз, Питер Ригерт, Питер Грин, Эми Ясбек, Ричард Джени, Орестес Матасена, Тим Бэгли, Нэнси Фиш, Джонни Уильямс, Рег Э. Кэти, Джим Дуган

    Описание

    Скромный, застенчивый служащий банка закомплексован настолько, что чувствует себя неуверенно с красивыми девушками. Волею судьбы к нему попадает волшебная маска, и Стенли Ипкис приобретает способность превращаться в неуязвимое мультяшное существо из забавных комиксов.
    Он становится супергероем, готовым бороться с преступностью, как Бэтмен. Итак, днем он по-прежнему скромный и незадачливый служащий, а по ночам — супермен…

    Возраст: 12+ (зрителям, достигшим 12 лет)
    Рейтинг MPAA: PG-13 (детям до 13 лет просмотр нежелателен)
    Продолжительность: 01: 41: 12
    Качество видео: BDRip
    Перевод: Многоголосый профессиональный, авторский
    Субтитры: русские, английские
    Видео: AVC/H.264, 1280x720, ~5232 kbps
    Аудио 1: AC3, 6 ch, 448 kbps, Русский (MVO HTB)
    Аудио 2: AC3, 6 ch, 448 kbps, Русский (MVO R5)
    Аудио 3: AC3, 6 ch, 640 kbps, Русский (MVO Киномания)
    Аудио 4: AC3, 6 ch, 640 kbps, Русский (AVO В.Горчаков)
    Аудио 5: AC3, 6 ch, 640 kbps, Английский
    Общее
    Уникальный идентификатор : 204997733548196996354734590915832250504 (0x9A39209A7B3BF1608A55738A84310088)
    Полное имя : D: FILMSThe.Mask.1994.BDRip.720p.mkv
    Формат : Matroska
    Версия формата : Version 4
    Размер файла : 5, 69 Гбайт
    Продолжительность : 1 ч. 41 м.
    Общий поток : 8052 Кбит/сек
    Название фильма : The Mask 1994 Blu-ray 720p x264 AC3 aRKa
    Дата кодирования : UTC 2019-10-23 11: 18: 52
    Программа кодирования : mkvmerge v8.2.0 (\'World of Adventure\') 64bit
    Библиотека кодирования : libebml v1.3.1 + libmatroska v1.4.2
    Видео
    Идентификатор : 1
    Формат : AVC
    Формат/Информация : Advanced Video Codec
    Профиль формата : High@L4.1
    Настройки формата : CABAC/8 Ref Frames
    Параметр CABAC формата : Да
    Параметр RefFrames формата : 8 кадров
    Идентификатор кодека : V_MPEG4/ISO/AVC
    Продолжительность : 1 ч. 41 м.
    Битрейт : 5232 Кбит/сек
    Ширина : 1280 пикселей
    Высота : 720 пикселей
    Соотношение сторон : 16: 9
    Режим частоты кадров : Постоянный
    Частота кадров : 23, 976 (24000/1001) кадра/сек
    Цветовое пространство : YUV
    Субдискретизация насыщенности : 4: 2: 0
    Битовая глубина : 8 бит
    Тип развёртки : Прогрессивная
    Бит/(Пиксели*Кадры) : 0.237
    Размер потока : 3, 70 Гбайт (65%)
    Заголовок : MPEG-4 AVC/5237 kbps/720p/23, 976 fps/16: 9
    Библиотека кодирования : x264 core 120 r2120kMod 0c7dab9
    Настройки программы : cabac=1/ref=8/deblock=1: -3: -2/analyse=0x3: 0x113/me=umh/subme=11/psy=1/fade_compensate=0.00/psy_rd=1.00: 0.05/mixed_ref=1/me_range=32/chroma_me=1/trellis=2/8x8dct=1/cqm=0/deadzone=21, 11/fast_pskip=1/chroma_qp_offset=-3/threads=3/sliced_threads=0/nr=0/decimate=1/interlaced=0/bluray_compat=0/constrained_intra=0/bframes=8/b_pyramid=2/b_adapt=2/b_bias=0/direct=1/weightb=1/open_gop=0/weightp=2/keyint=250/keyint_min=23/scenecut=40/intra_refresh=0/rc_lookahead=60/rc=crf/mbtree=0/crf=18.2000/qcomp=0.80/qpmin=0/qpmax=50/qpstep=4/vbv_maxrate=50000/vbv_bufsize=62500/crf_max=0.0/nal_hrd=none/ip_ratio=1.20/pb_ratio=1.20/aq=3: 1.20
    Язык : English
    Default : Да
    Forced : Нет
    Цветовой диапазон : Limited
    Коэффициенты матрицы : BT.709
    Аудио #1
    Идентификатор : 2
    Формат : AC-3
    Формат/Информация : Audio Coding 3
    Коммерческое название : Dolby Digital
    Идентификатор кодека : A_AC3
    Продолжительность : 1 ч. 41 м.
    Вид битрейта : Постоянный
    Битрейт : 448 Кбит/сек
    Каналы : 3 канала
    ChannelLayout : L R LFE
    Частота : 48, 0 КГц
    Частота кадров : 31, 250 кадров/сек (1536 SPF)
    Метод сжатия : С потерями
    Размер потока : 324 Мбайт (6%)
    Заголовок : MVO HTB+
    Язык : Russian
    ServiceKind/String : Complete Main
    Default : Да
    Forced : Нет
    Аудио #2
    Идентификатор : 3
    Формат : AC-3
    Формат/Информация : Audio Coding 3
    Коммерческое название : Dolby Digital
    Идентификатор кодека : A_AC3
    Продолжительность : 1 ч. 41 м.
    Вид битрейта : Постоянный
    Битрейт : 448 Кбит/сек
    Каналы : 6 каналов
    ChannelLayout : L R C LFE Ls Rs
    Частота : 48, 0 КГц
    Частота кадров : 31, 250 кадров/сек (1536 SPF)
    Метод сжатия : С потерями
    Размер потока : 324 Мбайт (6%)
    Заголовок : MVO лицензия R5
    Язык : Russian
    ServiceKind/String : Complete Main
    Default : Нет
    Forced : Нет
    Аудио #3
    Идентификатор : 4
    Формат : AC-3
    Формат/Информация : Audio Coding 3
    Коммерческое название : Dolby Digital
    Идентификатор кодека : A_AC3
    Продолжительность : 1 ч. 41 м.
    Вид битрейта : Постоянный
    Битрейт : 640 Кбит/сек
    Каналы : 6 каналов
    ChannelLayout : L R C LFE Ls Rs
    Частота : 48, 0 КГц
    Частота кадров : 31, 250 кадров/сек (1536 SPF)
    Метод сжатия : С потерями
    Размер потока : 463 Мбайт (8%)
    Заголовок : MVO Киномания
    Язык : Russian
    ServiceKind/String : Complete Main
    Default : Нет
    Forced : Нет
    Аудио #4
    Идентификатор : 5
    Формат : AC-3
    Формат/Информация : Audio Coding 3
    Коммерческое название : Dolby Digital
    Идентификатор кодека : A_AC3
    Продолжительность : 1 ч. 41 м.
    Вид битрейта : Постоянный
    Битрейт : 640 Кбит/сек
    Каналы : 6 каналов
    ChannelLayout : L R C LFE Ls Rs
    Частота : 48, 0 КГц
    Частота кадров : 31, 250 кадров/сек (1536 SPF)
    Метод сжатия : С потерями
    Размер потока : 463 Мбайт (8%)
    Заголовок : Горчаков
    Язык : Russian
    ServiceKind/String : Complete Main
    Default : Нет
    Forced : Нет
    Аудио #5
    Идентификатор : 6
    Формат : AC-3
    Формат/Информация : Audio Coding 3
    Коммерческое название : Dolby Digital
    Идентификатор кодека : A_AC3
    Продолжительность : 1 ч. 41 м.
    Вид битрейта : Постоянный
    Битрейт : 640 Кбит/сек
    Каналы : 6 каналов
    ChannelLayout : L R C LFE Ls Rs
    Частота : 48, 0 КГц
    Частота кадров : 31, 250 кадров/сек (1536 SPF)
    Метод сжатия : С потерями
    Размер потока : 463 Мбайт (8%)
    Заголовок : ENG
    Язык : English
    ServiceKind/String : Complete Main
    Default : Нет
    Forced : Нет
    Текст #1
    Идентификатор : 7
    Формат : UTF-8
    Идентификатор кодека : S_TEXT/UTF8
    Идентификатор кодека/Информация : UTF-8 Plain Text
    Продолжительность : 1 ч. 29 м.
    Битрейт : 3 бит/сек
    ElementCount : 53
    Размер потока : 2, 45 Кбайт (0%)
    Заголовок : Песни и надписи
    Язык : Russian
    Default : Нет
    Forced : Нет
    Текст #2
    Идентификатор : 8
    Формат : UTF-8
    Идентификатор кодека : S_TEXT/UTF8
    Идентификатор кодека/Информация : UTF-8 Plain Text
    Продолжительность : 1 ч. 40 м.
    Битрейт : 68 бит/сек
    ElementCount : 1026
    Размер потока : 50, 3 Кбайт (0%)
    Заголовок : лицензия R5
    Язык : Russian
    Default : Нет
    Forced : Нет
    Текст #3
    Идентификатор : 9
    Формат : UTF-8
    Идентификатор кодека : S_TEXT/UTF8
    Идентификатор кодека/Информация : UTF-8 Plain Text
    Продолжительность : 1 ч. 33 м.
    Битрейт : 85 бит/сек
    ElementCount : 1287
    Размер потока : 58, 4 Кбайт (0%)
    Заголовок : Ray ( r7.org.ru)
    Язык : Russian
    Default : Нет
    Forced : Нет
    Текст #4
    Идентификатор : 10
    Формат : UTF-8
    Идентификатор кодека : S_TEXT/UTF8
    Идентификатор кодека/Информация : UTF-8 Plain Text
    Продолжительность : 1 ч. 33 м.
    Битрейт : 77 бит/сек
    ElementCount : 1059
    Размер потока : 53, 1 Кбайт (0%)
    Заголовок : Subzero (Media Studio)
    Язык : Russian
    Default : Нет
    Forced : Нет
    Текст #5
    Идентификатор : 11
    Формат : UTF-8
    Идентификатор кодека : S_TEXT/UTF8
    Идентификатор кодека/Информация : UTF-8 Plain Text
    Продолжительность : 1 ч. 40 м.
    Битрейт : 37 бит/сек
    ElementCount : 1060
    Размер потока : 27, 6 Кбайт (0%)
    Язык : English
    Default : Нет
    Forced : Нет
    Меню
    00: 00: 00.000 : en: Main Titles/the Nicest Guy
    00: 03: 38.301 : en: Tina Carlyle
    00: 07: 05.216 : en: The Loaner
    00: 09: 28.651 : en: Congo Bongo Club
    00: 12: 17.987 : en: The Mask
    00: 14: 55.728 : en: A Big Nothing
    00: 17: 48.567 : en: Smokin!
    00: 22: 56.292 : en: Next Morning
    00: 26: 35.010 : en: Peggy Brandt
    00: 30: 34.583 : en: Golf Practice
    00: 33: 57.327 : en: Somebody Stop Me
    00: 37: 28.538 : en: Baby Ain\'t I Good to You
    00: 39: 43.214 : en: Rock This Joint
    00: 42: 54.572 : en: Award Winning
    00: 46: 03.010 : en: Kellaway
    00: 48: 35.037 : en: 50 Grand
    00: 52: 56.423 : en: Loki
    00: 55: 49.680 : en: Landfill Park
    01: 00: 47.269 : en: Cuban Pete
    01: 04: 04.674 : en: What a Rush!
    01: 09: 00.678 : en: Love-Crazy Wild Man
    01: 16: 01.140 : en: Milo to the Rescue
    01: 19: 52.579 : en: Casino Nite
    01: 26: 11.792 : en: Milo and the Mask
    01: 28: 49.699 : en: Spicy Meatball
    01: 32: 59.657 : en: Smokin!/End Credits

    Скриншоты для ознакомления



    Все одноименные релизы в Клубе
    Время раздачи: c 5 до 19 мск (до появления первых 3-5 скачавших)

    Онлайн видео Маска



    Маска/The Mask (1994) BDRip [H.264/720p]
    Рейтинг →
     (голосов: 1, оценка 3/5, голосовать можно 1 раз )

    Другие торренты по теме:

  • Маска / Mask (1985) Blu-ray [H.264 / 1080p] [Directors Cut] [Custom]
  • Маска / The Mask (1994) BDRip [H.264] скачать через торрент бесплатно
  • Маска ниндзя / Mask of the Ninja (2008) DVDRip
  • Маска смерти / Mask of Death (1996) DVDRip [H.264] [АVO]
  • Sunrider: First Arrival & Mask of Arcadius / Санрайдер: Первое прибытие & Маска Аркадиуса (2014) [Ru / En] Repack
  • Маска Зорро / The Mask of Zorro (1998) BDRip [H.265 / 1080p-LQ]
  • Haunted Legends 8: The Iron Mask / Легенды о призраках 8: Железная маска (2016) [Ru] (1.0) Unofficial [Collectors Edition / Коллекционное издание]
  • Маска / The Mask (1994) BDRip [H.265 / 1080p-LQ]


    • Комментарии (0):

      Информация

      Информация

        Посетители, находящиеся в группе Гости, не могут оставлять комментарии в данной новости.

        ↓ Меню




        ↓ Опрос

        Вы добавили сайт в закладки?
        Да
        Нет


        Популярное