.
Авторизация | Регистрация

bitok.xyz

» » Области тьмы / Limitless (2011) BDRip [H.264 / 720p] [Unrated Extended Cut] торрент скачать бесплатно


    Области тьмы / Limitless (2011) BDRip [H.264 / 720p] [Unrated Extended Cut] торрент скачать бесплатно

    Дата: 27-10-2019, 05:00 | .torrent скачали: 2

    Области тьмы / Limitless (2011) BDRip [H.264 / 720p] [Unrated Extended Cut]Производство: США/Relativity Media, Virgin Produced
    Жанр: фантастика, триллер, детектив
    Режиссер: Нил Бёргер

    Актеры
    Брэдли Купер, Роберт Де Ниро, Эбби Корниш, Эндрю Ховард, Анна Фрил, Джонни Витуорт, Томас Арана, Роберт Джон Бёрк, Даррен Голдштейн, Нед Эйзенберг

    Описание

    Нью-йоркский писатель Эдди, желая преодолеть чёрную полосу в жизни, принимает засекреченный препарат под названием NZT. Таблетка выводит мозг парня на работу в нереальной мощности. Этот творческий наркотик меняет всю жизнь Эдди, за короткий срок он зарабатывает кучу денег, но скоро начинает страдать от зловещих побочных эффектов препарата. А когда пытается найти других NZT-гениев, чтобы понять, как можно справиться с этим пристрастием, он узнает страшную правду…

    Возраст: 16+ (зрителям, достигшим 16 лет)
    Рейтинг MPAA: PG-13 (детям до 13 лет просмотр нежелателен)
    Релиз от: Optimus
    Продолжительность: 01: 45: 34
    Качество видео: BDRip
    Перевод: Дублированный, авторский
    Субтитры: русские, английские
    Видео: AVC/H.264, 1280x534, ~6770 kbps
    Аудио: AC3, 6 ch, 448 kbps, Русский (DUB)
    Аудио: AC3, 6 ch, 448 kbps, Русский (AVO А.Матвеев)
    Аудио: AC3, 6 ch, 448 kbps, Английский
    Общее
    Уникальный идентификатор : 179552959433517150922251460526831929931 (0x8714A461D245A558AA1BBC2DEDC18A4B)
    Полное имя : D: FILMSLimitless.2011.720p.BluRay.mkv
    Формат : Matroska
    Версия формата : Version 4
    Размер файла : 5, 98 Гбайт
    Продолжительность : 1 ч. 45 м.
    Общий поток : 8117 Кбит/сек
    Название фильма : Law Abiding Citizen (2009) - Release for HDCLUB by SbR
    Дата кодирования : UTC 2019-10-25 05: 02: 57
    Программа кодирования : mkvmerge v8.2.0 (\'World of Adventure\') 64bit
    Библиотека кодирования : libebml v1.3.1 + libmatroska v1.4.2
    Обложка : Yes
    Attachments : cover.jpg/xlog.txt
    Видео
    Идентификатор : 1
    Формат : AVC
    Формат/Информация : Advanced Video Codec
    Профиль формата : High@L4.1
    Настройки формата : CABAC/12 Ref Frames
    Параметр CABAC формата : Да
    Параметр RefFrames формата : 12 кадров
    Идентификатор кодека : V_MPEG4/ISO/AVC
    Продолжительность : 1 ч. 45 м.
    Битрейт : 6770 Кбит/сек
    Ширина : 1280 пикселей
    Высота : 534 пикселя
    Соотношение сторон : 2, 40: 1
    Соотношение сторон в оригинале : 2, 40: 1
    Режим частоты кадров : Постоянный
    Частота кадров : 23, 976 (24000/1001) кадра/сек
    Цветовое пространство : YUV
    Субдискретизация насыщенности : 4: 2: 0
    Битовая глубина : 8 бит
    Тип развёртки : Прогрессивная
    Бит/(Пиксели*Кадры) : 0.413
    Размер потока : 4, 99 Гбайт (83%)
    Заголовок : Release for HDCLUB
    Библиотека кодирования : x264 core 142 r2431+42 c69a006 tMod 8-bit@4: 2: 0 X86_64
    Настройки программы : cabac=1/ref=12/deblock=1: -2: -2/analyse=0x3: 0x133/me=umh/subme=11/psy=1/fade_compensate=0.00/psy_rd=1.00: 0.00/mixed_ref=1/me_range=32/chroma_me=1/trellis=2/8x8dct=1/cqm=0/deadzone=21, 11/fast_pskip=1/chroma_qp_offset=-2/threads=12/lookahead_threads=2/sliced_threads=0/nr=0/decimate=1/interlaced=0/bluray_compat=0/constrained_intra=0/fgo=0/bframes=8/b_pyramid=2/b_adapt=2/b_bias=0/direct=1/weightb=1/open_gop=0/weightp=2/keyint=250/keyint_min=23/scenecut=40/intra_refresh=0/rc_lookahead=60/rc=crf/mbtree=0/crf=17.0000/qcomp=0.70/qpmin=0: 0: 0/qpmax=69: 69: 69/qpstep=4/vbv_maxrate=62500/vbv_bufsize=78125/crf_max=0.0/nal_hrd=none/filler=0/ip_ratio=1.40/pb_ratio=1.30/aq=4: 0.80/aq-sensitivity=11.00/aq-factor=1.00: 1.00: 1.00/aq2=1: 0.60/aq2-sensitivity=9.00/aq2-factor=1.00: 1.00: 1.00/aq3=1: 0.60: 0.60: 0.60: 0.60: 0.60: 0.60: 0.60: 0.60/aq3-sensitivity=10.00/aq3-factor=1.00: 1.00: 1.00: 1.00: 1.00: 1.00/aq3-boundary=192: 64: 24
    Язык : English
    Default : Да
    Forced : Нет
    Цветовой диапазон : Limited
    Основные цвета : BT.709
    Характеристики трансфера : BT.709
    Коэффициенты матрицы : BT.709
    Аудио #1
    Идентификатор : 2
    Формат : AC-3
    Формат/Информация : Audio Coding 3
    Коммерческое название : Dolby Digital
    Идентификатор кодека : A_AC3
    Продолжительность : 1 ч. 45 м.
    Вид битрейта : Постоянный
    Битрейт : 448 Кбит/сек
    Каналы : 6 каналов
    ChannelLayout : L R C LFE Ls Rs
    Частота : 48, 0 КГц
    Частота кадров : 31, 250 кадров/сек (1536 SPF)
    Метод сжатия : С потерями
    Размер потока : 338 Мбайт (6%)
    Заголовок : RUS
    Язык : Russian
    ServiceKind/String : Complete Main
    Default : Да
    Forced : Нет
    Аудио #2
    Идентификатор : 3
    Формат : AC-3
    Формат/Информация : Audio Coding 3
    Коммерческое название : Dolby Digital
    Идентификатор кодека : A_AC3
    Продолжительность : 1 ч. 45 м.
    Вид битрейта : Постоянный
    Битрейт : 448 Кбит/сек
    Каналы : 6 каналов
    ChannelLayout : L R C LFE Ls Rs
    Частота : 48, 0 КГц
    Частота кадров : 31, 250 кадров/сек (1536 SPF)
    Метод сжатия : С потерями
    Размер потока : 338 Мбайт (6%)
    Заголовок : RUS Matveev
    Язык : Russian
    ServiceKind/String : Complete Main
    Default : Нет
    Forced : Нет
    Аудио #3
    Идентификатор : 4
    Формат : AC-3
    Формат/Информация : Audio Coding 3
    Коммерческое название : Dolby Digital
    Идентификатор кодека : A_AC3
    Продолжительность : 1 ч. 45 м.
    Вид битрейта : Постоянный
    Битрейт : 448 Кбит/сек
    Каналы : 6 каналов
    ChannelLayout : L R C LFE Ls Rs
    Частота : 48, 0 КГц
    Частота кадров : 31, 250 кадров/сек (1536 SPF)
    Метод сжатия : С потерями
    Размер потока : 338 Мбайт (6%)
    Заголовок : ENG
    Язык : English
    ServiceKind/String : Complete Main
    Default : Нет
    Forced : Нет
    Текст #1
    Идентификатор : 5
    Формат : UTF-8
    Идентификатор кодека : S_TEXT/UTF8
    Идентификатор кодека/Информация : UTF-8 Plain Text
    Продолжительность : 1 ч. 38 м.
    Битрейт : 98 бит/сек
    ElementCount : 1074
    Размер потока : 70, 5 Кбайт (0%)
    Заголовок : rus
    Язык : Russian
    Default : Да
    Forced : Нет
    Текст #2
    Идентификатор : 6
    Формат : UTF-8
    Идентификатор кодека : S_TEXT/UTF8
    Идентификатор кодека/Информация : UTF-8 Plain Text
    Продолжительность : 1 ч. 38 м.
    Битрейт : 125 бит/сек
    ElementCount : 1208
    Размер потока : 91, 0 Кбайт (0%)
    Заголовок : rus Matveev
    Язык : Russian
    Default : Нет
    Forced : Нет
    Текст #3
    Идентификатор : 7
    Формат : UTF-8
    Идентификатор кодека : S_TEXT/UTF8
    Идентификатор кодека/Информация : UTF-8 Plain Text
    Продолжительность : 1 ч. 45 м.
    Битрейт : 70 бит/сек
    ElementCount : 1369
    Размер потока : 54, 4 Кбайт (0%)
    Заголовок : eng
    Язык : English
    Default : Нет
    Forced : Нет
    Меню
    00: 00: 00.000 : en: 00: 00: 00.000
    00: 03: 49.104 : en: 00: 03: 49.104
    00: 06: 55.915 : en: 00: 06: 55.915
    00: 11: 05.707 : en: 00: 11: 05.707
    00: 16: 28.362 : en: 00: 16: 28.362
    00: 20: 40.072 : en: 00: 20: 40.072
    00: 24: 20.834 : en: 00: 24: 20.834
    00: 28: 55.859 : en: 00: 28: 55.859
    00: 34: 09.172 : en: 00: 34: 09.172
    00: 38: 20.173 : en: 00: 38: 20.173
    00: 42: 26.419 : en: 00: 42: 26.419
    00: 47: 03.821 : en: 00: 47: 03.821
    00: 51: 24.248 : en: 00: 51: 24.248
    00: 54: 45.532 : en: 00: 54: 45.532
    00: 59: 36.948 : en: 00: 59: 36.948
    01: 05: 59.664 : en: 01: 05: 59.664
    01: 09: 07.935 : en: 01: 09: 07.935
    01: 12: 11.952 : en: 01: 12: 11.952
    01: 15: 12.299 : en: 01: 15: 12.299
    01: 18: 52.561 : en: 01: 18: 52.561
    01: 22: 20.352 : en: 01: 22: 20.352
    01: 27: 53.643 : en: 01: 27: 53.643
    01: 32: 29.961 : en: 01: 32: 29.961
    01: 39: 01.644 : en: 01: 39: 01.644


    Онлайн видео Области тьмы



    Области тьмы/Limitless (2011) BDRip [H.264/720p] [Unrated Extended Cut]
    Рейтинг →
     (голосов: 1, оценка 3/5, голосовать можно 1 раз )

    Другие торренты по теме:

  • Области тьмы / Limitless (2011) BDRip [H.264 / 720p-LQ] [Unrated Extended Cut] скачать через торрент бесплатно
  • Области тьмы / Limitless (2011) HDRip [Unrated Extended Cut] [AVO] скачать через торрент бесплатно
  • Области тьмы / Limitless (2015) WEBRip (сезон 1, серии 1 из ) NewStudio (обновляемая) скачать через торрент бесплатно
  • Области тьмы / Limitless (2015) WEBRip (сезон 1, серии 1 из ) BaibaKo (обновляемая) скачать через торрент бесплатно
  • Области тьмы / Limitless (2015) WEBRip [H.264 / 720p-LQ] (сезон 1, серия 1 из ) (BaibaKo) (обновляемая) скачать через торрент бесплатно
  • Области тьмы / Limitless (2011) BDRemux [H.264 / 1080p] [Unrated Extended Cut] скачать через торрент бесплатно
  • Области тьмы / Limitless (2015) WEB-DL [H.264 / 720p-LQ] (сезон 1, серия 1 из 10) (NewStudio) (обновляемая) скачать через торрент бесплатно
  • Области тьмы / Limitless (2015) WEB-DLRip (сезон 1, серии 1-2 из 7) LostFilm (обновляемая) скачать через торрент бесплатно


    • Комментарии (0):

      Информация

      Информация

        Посетители, находящиеся в группе Гости, не могут оставлять комментарии в данной новости.

        ↓ Меню




        ↓ Опрос

        Вы добавили сайт в закладки?
        Да
        Нет


        Популярное