.
Авторизация | Регистрация

bitok.xyz

» » Женщина-кошка / Catwoman (2004) BDRip [H.264 / 1080p] торрент скачать бесплатно


    Женщина-кошка / Catwoman (2004) BDRip [H.264 / 1080p] торрент скачать бесплатно

    Дата: 27-10-2019, 05:00 | .torrent скачали: 1

    Женщина-кошка / Catwoman (2004) BDRip [H.264 / 1080p]Производство: США/Warner Bros., Village Roadshow Pictures
    Жанр: фэнтези, боевик, криминал
    Режиссер: Питоф

    Актеры
    Холли Берри, Бенджамин Брэтт, Шэрон Стоун, Ламбер Вильсон, Фрэнсис Конрой, Алекс Борштейн, Майкл Масси, Байрон Манн, Ким Смит, Кристофер Хейердал

    Описание

    Пейшинс Филипс работает дизайнером в крупной косметической компании, которая готовится выпустить на рынок новый продукт, замедляющий старение. Но у этой революционной новинки есть существенный недостаток, который компания тщательно скрывает и о котором случайно узнает Пэйшинс. Дальнейшие события меняют ее жизнь самым невероятным образом…

    Возраст: 12+ (зрителям, достигшим 12 лет)
    Рейтинг MPAA: PG-13 (детям до 13 лет просмотр нежелателен)
    Продолжительность: 01: 44: 18
    Качество видео: BDRip
    Перевод: Дублированный, двухголосый профессиональный
    Субтитры: русские, английские
    Видео: AVC/H.264, 1920x800, ~11.5 mbps
    Аудио 1: AC3, 6 ch, 640 kbps, Русский (DUB)
    Аудио 2: DTS, 6 ch, 1509 kbps, Русский (DVO Tycoon)
    Аудио 3: AC3, 6 ch, 640 kbps, Английский
    Общее
    Уникальный идентификатор : 207690803479861717395809745118622943387 (0x9C3FCB33D3C681D89C8CD7204C8C889B)
    Полное имя : D: FILMSCatwoman.2004.1080p.BluRay.mkv
    Формат : Matroska
    Версия формата : Version 4
    Размер файла : 10, 4 Гбайт
    Продолжительность : 1 ч. 44 м.
    Общий поток : 14, 3 Мбит/сек
    Дата кодирования : UTC 2019-10-25 01: 30: 07
    Программа кодирования : mkvmerge v8.2.0 (\'World of Adventure\') 64bit
    Библиотека кодирования : libebml v1.3.1 + libmatroska v1.4.2
    Обложка : Yes
    Attachments : cover
    Видео
    Идентификатор : 1
    Формат : AVC
    Формат/Информация : Advanced Video Codec
    Профиль формата : High@L4.1
    Настройки формата : CABAC/5 Ref Frames
    Параметр CABAC формата : Да
    Параметр RefFrames формата : 5 кадров
    Идентификатор кодека : V_MPEG4/ISO/AVC
    Продолжительность : 1 ч. 44 м.
    Битрейт : 11, 5 Мбит/сек
    Ширина : 1920 пикселей
    Высота : 800 пикселей
    Соотношение сторон : 2, 40: 1
    Режим частоты кадров : Постоянный
    Частота кадров : 23, 976 (24000/1001) кадра/сек
    Цветовое пространство : YUV
    Субдискретизация насыщенности : 4: 2: 0
    Битовая глубина : 8 бит
    Тип развёртки : Прогрессивная
    Бит/(Пиксели*Кадры) : 0.312
    Размер потока : 8, 38 Гбайт (80%)
    Библиотека кодирования : x264 core 146 r2538bm 121396c
    Настройки программы : cabac=1/ref=5/deblock=1: -3: -3/analyse=0x3: 0x113/me=umh/subme=10/psy=1/psy_rd=1.00: 0.00/mixed_ref=1/me_range=64/chroma_me=1/trellis=2/8x8dct=1/cqm=0/deadzone=21, 11/fast_pskip=0/chroma_qp_offset=-2/threads=12/lookahead_threads=3/sliced_threads=0/nr=0/decimate=1/interlaced=0/bluray_compat=0/constrained_intra=0/bframes=10/b_pyramid=2/b_adapt=2/b_bias=0/direct=3/weightb=1/open_gop=0/weightp=2/keyint=250/keyint_min=23/scenecut=40/intra_refresh=0/rc_lookahead=50/rc=2pass/mbtree=0/bitrate=11500/ratetol=1.0/qcomp=0.60/qpmin=0/qpmax=69/qpstep=4/cplxblur=20.0/qblur=0.5/vbv_maxrate=50000/vbv_bufsize=62500/nal_hrd=none/filler=0/ip_ratio=1.40/pb_ratio=1.30/aq=1: 1.00
    Язык : English
    Default : Да
    Forced : Нет
    Аудио #1
    Идентификатор : 2
    Формат : AC-3
    Формат/Информация : Audio Coding 3
    Коммерческое название : Dolby Digital
    Идентификатор кодека : A_AC3
    Продолжительность : 1 ч. 44 м.
    Вид битрейта : Постоянный
    Битрейт : 640 Кбит/сек
    Каналы : 6 каналов
    ChannelLayout : L R C LFE Ls Rs
    Частота : 48, 0 КГц
    Частота кадров : 31, 250 кадров/сек (1536 SPF)
    Метод сжатия : С потерями
    Размер потока : 477 Мбайт (4%)
    Заголовок : DVD R5 Dub - AC3 5.1 @ 640 kbps
    Язык : Russian
    ServiceKind/String : Complete Main
    Default : Да
    Forced : Нет
    Аудио #2
    Идентификатор : 3
    Формат : DTS
    Формат/Информация : Digital Theater Systems
    Идентификатор кодека : A_DTS
    Продолжительность : 1 ч. 44 м.
    Вид битрейта : Постоянный
    Битрейт : 1509 Кбит/сек
    Каналы : 6 каналов
    ChannelLayout : C L R Ls Rs LFE
    Частота : 48, 0 КГц
    Частота кадров : 93, 750 кадра/сек (512 SPF)
    Битовая глубина : 16 бит
    Метод сжатия : С потерями
    Размер потока : 1, 10 Гбайт (11%)
    Заголовок : Tycoon Dvo - DTS 5.1 @ 1536 kbps
    Язык : Russian
    Default : Нет
    Forced : Нет
    Аудио #3
    Идентификатор : 4
    Формат : AC-3
    Формат/Информация : Audio Coding 3
    Коммерческое название : Dolby Digital
    Идентификатор кодека : A_AC3
    Продолжительность : 1 ч. 44 м.
    Вид битрейта : Постоянный
    Битрейт : 640 Кбит/сек
    Каналы : 6 каналов
    ChannelLayout : L R C LFE Ls Rs
    Частота : 48, 0 КГц
    Частота кадров : 31, 250 кадров/сек (1536 SPF)
    Метод сжатия : С потерями
    Размер потока : 477 Мбайт (4%)
    Заголовок : AC3 5.1 @ 640 kbps
    Язык : English
    ServiceKind/String : Complete Main
    Default : Нет
    Forced : Нет
    Текст #1
    Идентификатор : 5
    Формат : UTF-8
    Идентификатор кодека : S_TEXT/UTF8
    Идентификатор кодека/Информация : UTF-8 Plain Text
    Продолжительность : 1 ч. 37 м.
    Битрейт : 67 бит/сек
    ElementCount : 840
    Размер потока : 47, 9 Кбайт (0%)
    Заголовок : SRT/UTF8 Full
    Язык : Russian
    Default : Нет
    Forced : Нет
    Текст #2
    Идентификатор : 6
    Формат : UTF-8
    Идентификатор кодека : S_TEXT/UTF8
    Идентификатор кодека/Информация : UTF-8 Plain Text
    Продолжительность : 1 ч. 40 м.
    Битрейт : 40 бит/сек
    ElementCount : 912
    Размер потока : 29, 7 Кбайт (0%)
    Заголовок : SRT/UTF8 Full
    Язык : English
    Default : Нет
    Forced : Нет
    Меню
    00: 00: 00.000 : : Cat Lore/Credits
    00: 03: 35.965 : : Impatient with Patience
    00: 07: 58.895 : : Rescue Missions
    00: 12: 16.861 : : Date with the Police
    00: 16: 21.105 : : Get Rid of Her
    00: 21: 28.829 : : Breath of Life
    00: 25: 10.342 : : New Tricks
    00: 27: 39.824 : : Midnight\'s Owner
    00: 30: 04.886 : : Strange Behavior
    00: 33: 24.961 : : Shooting Hoops
    00: 36: 21.971 : : Animal Attraction
    00: 39: 06.469 : : Party Time
    00: 42: 11.570 : : Feline-ious Assault
    00: 46: 38.462 : : Accepting Catwoman
    00: 51: 10.108 : : Stalking Armando
    00: 55: 15.729 : : Cat Got Your Tongue?
    00: 58: 00.351 : : Similarities
    01: 00: 31.377 : : Impressive Heroics
    01: 03: 56.165 : : Between Us Girls
    01: 06: 13.135 : : Show Stopper
    01: 10: 25.471 : : Complicated
    01: 14: 20.330 : : Getting to Know Her
    01: 17: 53.168 : : Framed
    01: 20: 49.219 : : Same Girl
    01: 24: 12.088 : : Escaping on All Fours
    01: 26: 34.939 : : Delivery Failure
    01: 28: 42.025 : : Laurel\'s Prey
    01: 31: 49.587 : : Bad Girls Showdown
    01: 37: 03.567 : : Freedom is Power
    01: 38: 34.575 : : End Credits

    Скриншоты для ознакомления



    Все одноименные релизы в Клубе
    Время раздачи: c 5 до 19 мск (до появления первых 3-5 скачавших)

    Онлайн видео Женщина-кошка



    Женщина-кошка/Catwoman (2004) BDRip [H.264/1080p]
    Рейтинг →
     (голосов: 1, оценка 5/5, голосовать можно 1 раз )

    Другие торренты по теме:

  • Женщина-кошка / Catwoman (2004) HDRip [H.264] [Hand Made Extended Cut]
  • Женщина-кошка / Catwoman (2004) BDRip [H.264 / 1080p-LQ]


    • Комментарии (0):

      Информация

      Информация

        Посетители, находящиеся в группе Гости, не могут оставлять комментарии в данной новости.

        ↓ Меню




        ↓ Опрос

        Вы добавили сайт в закладки?
        Да
        Нет


        Популярное