.
Авторизация | Регистрация

bitok.xyz

» » Идеальная кожа / Perfect Skin (2018) BDRemux [H.264 / 1080p] [MVO] торрент скачать бесплатно


    Идеальная кожа / Perfect Skin (2018) BDRemux [H.264 / 1080p] [MVO] торрент скачать бесплатно

    Дата: 27-10-2019, 05:00 | .torrent скачали: 0

    Идеальная кожа / Perfect Skin (2018) BDRemux [H.264 / 1080p] [MVO]Производство: Великобритания
    Жанр: Ужасы, триллер
    Режиссер: Kevin Chicken

    Актеры
    Ричард Брэйк, Наталья Кострцева, Джо Вудкок, Том Эшли, Jemima Bennett, Oscar Bennett, Дэвид Кристофер-Тернер, Сартаж Гаревал, Emma-Jane Hinds, Камерон Джек

    Описание

    События разворачиваются вокруг девушки по имени Катя, которая испытывает серьезные финансовые проблемы, и поэтому просит свою хорошую подругу Люси приютить её у себя дома на несколько дней. После бурного вечера в клубе девушки отправляются к Бобу — экстравагантному татуировщику, который оказывается восхищен красотой кожи Кати и предлагает ей сделать тату. А через некоторое время мужчина решается на крайне отчаянный поступок: он похищает девушку, чтобы использовать её идеальную кожу в качестве полотна для своих шедевров.

    Рейтинг MPAA: R (лицам до 17 лет обязательно присутствие взрослого)
    Релиз от: mike7025
    Продолжительность: 01: 42: 23
    Качество видео: BDRemux
    Перевод: Многоголосый профессиональный (HDRezka Studio)
    Субтитры: Русские (forced), английские
    Видео: AVC/H.264, 1920x1080, ~17.0 Mbps
    Аудио 1: AAC, 2 ch, 192 Kbps - Русский (МVO, HDRezka Studio)
    Аудио 2: DTS-HD MA, 6 ch, 2640 Kbps - Английский
    General
    Unique ID : 128284172534940479795492181604280390331 (0x6082A2078B065AE92F2C71C6350952BB)
    Complete name : G: Perfect.Skin.2018.REMUX.mkv
    Format : Matroska
    Format version : Version 4/Version 2
    File size : 14.1 GiB
    Duration : 1 h 42 min
    Overall bit rate mode : Variable
    Overall bit rate : 19.7 Mb/s
    Encoded date : UTC 2019-10-26 01: 56: 44
    Writing application : mkvmerge v20.0.0 (\'I Am The Sun\') 64-bit
    Writing library : libebml v1.3.5 + libmatroska v1.4.8
    Video
    ID : 1
    Format : AVC
    Format/Info : Advanced Video Codec
    Format profile : High@L4.1
    Format settings : CABAC/3 Ref Frames
    Format settings, CABAC : Yes
    Format settings, RefFrames : 3 frames
    Format settings, GOP : M=4, N=24
    Codec ID : V_MPEG4/ISO/AVC
    Duration : 1 h 42 min
    Bit rate mode : Variable
    Bit rate : 17.0 Mb/s
    Maximum bit rate : 33.0 Mb/s
    Width : 1 920 pixels
    Height : 1 080 pixels
    Display aspect ratio : 16: 9
    Frame rate mode : Constant
    Frame rate : 24.000 FPS
    Standard : NTSC
    Color space : YUV
    Chroma subsampling : 4: 2: 0
    Bit depth : 8 bits
    Scan type : Progressive
    Bits/(Pixel*Frame) : 0.342
    Stream size : 12.1 GiB (86%)
    Title : Perfect.Skin.2018.1080p.BluRay.REMUX.AVC.DTS-HD.MA.5.1-FGT
    Writing library : x264pro - Adobe CS Exporter Plug-in
    Encoding settings : cabac=1/ref=4/deblock=1: -1: -1/analyse=0x3: 0x113/me=umh/subme=8/psy=1/psy_rd=1.00: 0.15/mixed_ref=1/me_range=16/chroma_me=1/trellis=1/8x8dct=1/cqm=0/deadzone=21, 11/fast_pskip=1/chroma_qp_offset=-3/threads=12/lookahead_threads=2/sliced_threads=0/slices=4/nr=0/decimate=1/interlaced=0/bluray_compat=1/constrained_intra=0/bframes=3/b_pyramid=1/b_adapt=2/b_bias=0/direct=3/weightb=1/open_gop=0/weightp=1/keyint=24/keyint_min=1/scenecut=40/intra_refresh=0/rc_lookahead=24/rc=abr/mbtree=1/bitrate=17000/ratetol=1.0/qcomp=0.60/qpmin=0/qpmax=69/qpstep=4/vbv_maxrate=33000/vbv_bufsize=30000/nal_hrd=vbr/ip_ratio=1.40/aq=1: 1.00
    Language : English
    Default : Yes
    Forced : No
    Color range : Limited
    Color primaries : BT.709
    Transfer characteristics : BT.709
    Matrix coefficients : BT.709
    Audio #1
    ID : 2
    Format : AAC
    Format/Info : Advanced Audio Codec
    Format profile : LC
    Codec ID : A_AAC-2
    Duration : 1 h 42 min
    Bit rate : 192 kb/s
    Channel(s) : 2 channels
    Channel positions : Front: L R
    Sampling rate : 48.0 kHz
    Frame rate : 46.875 FPS (1024 SPF)
    Compression mode : Lossy
    Stream size : 142 MiB (1%)
    Title : MVO HDRezka Studio
    Language : Russian
    Default : Yes
    Forced : No
    Audio #2
    ID : 3
    Format : DTS
    Format/Info : Digital Theater Systems
    Format profile : MA/Core
    Codec ID : A_DTS
    Duration : 1 h 42 min
    Bit rate mode : Variable/Constant
    Bit rate : 2 640 kb/s/1 509 kb/s
    Channel(s) : 6 channels
    Channel positions : Front: L C R, Side: L R, LFE
    Sampling rate : 48.0 kHz
    Frame rate : 93.750 FPS (512 SPF)
    Bit depth : 24 bits
    Compression mode : Lossless/Lossy
    Stream size : 1.89 GiB (13%)
    Language : English
    Default : No
    Forced : No
    Text #1
    ID : 4
    Format : UTF-8
    Codec ID : S_TEXT/UTF8
    Codec ID/Info : UTF-8 Plain Text
    Duration : 1 h 17 min
    Bit rate : 1 b/s
    Count of elements : 20
    Stream size : 630 Bytes (0%)
    Title : forced
    Language : Russian
    Default : Yes
    Forced : Yes
    Text #2
    ID : 5
    Format : UTF-8
    Codec ID : S_TEXT/UTF8
    Codec ID/Info : UTF-8 Plain Text
    Duration : 1 h 35 min
    Bit rate : 36 b/s
    Count of elements : 932
    Stream size : 25.7 KiB (0%)
    Language : English
    Default : No
    Forced : No
    Menu
    00: 00: 00.000 : en: Chapter 01
    00: 08: 13.541 : en: Chapter 02
    00: 16: 55.750 : en: Chapter 03
    00: 25: 52.125 : en: Chapter 04
    00: 33: 54.750 : en: Chapter 05
    00: 43: 02.791 : en: Chapter 06
    00: 51: 10.333 : en: Chapter 07
    01: 00: 16.208 : en: Chapter 08
    01: 08: 13.958 : en: Chapter 09
    01: 14: 42.125 : en: Chapter 10
    01: 26: 45.458 : en: Chapter 11
    01: 33: 00.041 : en: Chapter 12
    01: 38: 59.875 : en: Chapter 13
    01: 42: 21.375 : en: Chapter 14

    Скриншоты для ознакомления




    Все одноименные релизы в Клубе
    Время раздачи: 24/7 (до появления первых 3-5 скачавших)

    Онлайн видео Идеальная кожа



    Идеальная кожа/Perfect Skin (2018) BDRemux [H.264/1080p] [MVO]
    Рейтинг →
     (голосов: 1, оценка 4/5, голосовать можно 1 раз )

    Другие торренты по теме:

  • Идеальная кожа / Perfect Skin (2018) BDRip [H.265 / 1080p] [10-bit] [MVO] [PR]
  • Идеальная кожа / Perfect Skin (2018) BDRip [H.265 / 720p] [10-bit] [MVO] [PR]
  • Идеальная кожа / Perfect Skin (2018) BDRip [H.265] [MVO] [10-bit]


    • Комментарии (0):

      Информация

      Информация

        Посетители, находящиеся в группе Гости, не могут оставлять комментарии в данной новости.

        ↓ Меню




        ↓ Опрос

        Вы добавили сайт в закладки?
        Да
        Нет


        Популярное