.
Авторизация | Регистрация

bitok.xyz

» » Прочь / Get Out (2017) UHD BDRip [H.265 / 2160p] [4K, HDR, 10-bit] торрент скачать бесплатно


    Прочь / Get Out (2017) UHD BDRip [H.265 / 2160p] [4K, HDR, 10-bit] торрент скачать бесплатно

    Дата: 27-10-2019, 05:00 | .torrent скачали: 0

    Прочь / Get Out (2017) UHD BDRip [H.265 / 2160p] [4K, HDR, 10-bit]Производство: Япония, США/Blumhouse Productions, QC Entertainment
    Жанр: Детектив, Триллер, Ужасы
    Режиссер: Джордан Пил
    Продюсер: Джейсон Блум, Жанетт Брилл, Marcei A. Brown

    Актеры
    Дэниэл Калуя, Эллисон Уильямс, Кэтрин Кинер, Брэдли Уитфорд, Калеб Лэндри Джонс, Маркус Хендерсон, Бетти Гэбриел, Лакит Стэнфилд, Стивен Рут, Лил Релл

    Описание

    Знакомство с родителями подружки не предвещает молодому фотографу из Нью-Йорка ничего хорошего, ведь семья девушки принадлежит к элитному обществу и живет в уединенном загородном доме. Если бы он только знал истинную причину своего приглашения, то немедленно бросился бы прочь…

    Возраст: 18+ (зрителям, достигшим 18 лет. запрещено для детей)
    Рейтинг MPAA: R (лицам до 17 лет обязательно присутствие взрослого)
    Релиз от: Tigole
    Продолжительность: 01: 44: 05
    Качество видео: UHD BDRip
    Перевод: Дублированный, Многоголосый закадровый, Одноголосый закадровый x2
    Субтитры: русские (форсированные, полные), английские (полные, для слабослышащих, комментарии)
    Видео: HEVC/H.265, 3840x1608, ~10, 5 Mbps
    Аудио 1: AAC, 8 ch, 767 Kbps (английский)
    Аудио 2: AAC, 2 ch, 66 Kbps (английский, комментарии)
    Аудио 3: AC3, 6 ch, 448 Kbps (русский, дубляж - Blu-Ray CEE)
    Аудио 4: AC3, 6 ch, 640 Kbps (русский, многоголосый - AlexFilm)
    Аудио 5: AC3, 6 ch, 640 Kbps (русский, одноголосый - М. Яроцкий)
    Аудио 6: AC3, 6 ch, 448 Kbps (русский, одноголосый - А. Гаврилов)
    Общее
    Уникальный идентификатор : 230826968039405374104342697189905214903 (0xADA7A82F4FD17A9933919AF399332DB7)
    Полное имя : E: VideoПрочь (Get Out).mkv
    Формат : Matroska
    Версия формата : Version 4/Version 2
    Размер файла : 9, 86 Гбайт
    Продолжительность : 1 ч. 44 м.
    Общий поток : 13, 6 Мбит/сек
    Название фильма : Прочь/Get Out
    Кодирование произвёл : Tigole
    Дата выпуска : 2017
    Дата кодирования : UTC 2019-10-24 09: 45: 16
    Программа кодирования : mkvmerge v34.0.0 (\'Sight and Seen\') 64-bit
    Библиотека кодирования : libebml v1.3.7 + libmatroska v1.5.0
    Обложка : Yes
    Attachments : cover.jpg/cover.png
    Released by : Buba5473 for NNM-Club
    Видео
    Идентификатор : 1
    Формат : HEVC
    Формат/Информация : High Efficiency Video Coding
    Профиль формата : Main 10@L5@Main
    Идентификатор кодека : V_MPEGH/ISO/HEVC
    Продолжительность : 1 ч. 44 м.
    Битрейт : 10, 5 Мбит/сек
    Ширина : 3840 пикселей
    Высота : 1608 пикселей
    Соотношение сторон : 2, 40: 1
    Режим частоты кадров : Постоянный
    Частота кадров : 23, 976 (24000/1001) кадра/сек
    Цветовое пространство : YUV
    Субдискретизация насыщенности : 4: 2: 0
    Битовая глубина : 10 бит
    Бит/(Пиксели*Кадры) : 0.071
    Размер потока : 7, 66 Гбайт (78%)
    Заголовок : Get Out (2017) (2160p BluRay x265 10bit HDR Tigole)
    Библиотека кодирования : x265 2.9+14-3023bd8b05c0: WindowsGCC 8.2.164 bit 10bit
    Настройки программы : cpuid=1111039/frame-threads=3/numa-pools=8/wpp/no-pmode/no-pme/no-psnr/no-ssim/log-level=2/input-csp=1/input-res=3840x1608/interlace=0/total-frames=149736/level-idc=0/high-tier=1/uhd-bd=0/ref=4/no-allow-non-conformance/repeat-t_heads/annexb/no-aud/no-hrd/info/hash=0/no-temporal-layers/open-gop/min-keyint=23/keyint=250/gop-lookahead=0/bframes=8/b-adapt=2/b-pyramid/bframe-bias=0/rc-lookahead=25/lookahead-slices=4/scenecut=40/radl=0/no-splice/no-intra-refresh/ctu=64/min-cu-size=8/rect/no-amp/max-tu-size=32/tu-inter-depth=1/tu-intra-depth=1/limit-tu=0/rdoq-level=2/dynamic-rd=0.00/no-ssim-rd/signhide/no-tskip/nr-intra=0/nr-inter=0/no-constrained-intra/strong-intra-smoothing/max-merge=3/limit-refs=3/limit-modes/me=3/subme=3/merange=57/temporal-mvp/weightp/no-weightb/no-analyze-src-pics/deblock=0: 0/sao/no-sao-non-deblock/rd=4/no-early-skip/rskip/no-fast-intra/no-tskip-fast/no-cu-lossless/no-b-intra/no-splitrd-skip/rdpenalty=0/psy-rd=2.00/psy-rdoq=1.00/no-rd-refine/no-lossless/cbqpoffs=0/crqpoffs=0/rc=crf/crf=18.0/qcomp=0.60/qpstep=4/stats-write=0/stats-read=0/ipratio=1.40/pbratio=1.30/aq-mode=3/aq-strength=1.00/cutree/zone-count=0/no-strict-cbr/qg-size=32/no-rc-grain/qpmax=69/qpmin=0/no-const-vbv/sar=0/overscan=0/videoformat=5/range=0/colorprim=9/transfer=16/colormatrix=9/chromaloc=0/display-window=0/master-display=G(13250, 34500)B(7500, 3000)R(34000, 16000)WP(15635, 16450)L(10000000, 0)/max-cll=0, 0/min-luma=0/max-luma=1023/log2-max-poc-lsb=8/vui-timing-info/vui-hrd-info/slices=1/no-opt-qp-pps/no-opt-ref-list-length-pps/no-multi-pass-opt-rps/scenecut-bias=0.05/no-opt-cu-delta-qp/aq-motion/hdr/hdr-opt/no-dhdr10-opt/no-idr-recovery-sei/analysis-reuse-level=5/scale-factor=0/refine-intra=0/refine-inter=0/refine-mv=0/no-limit-sao/ctu-info=0/no-lowpass-dct/refine-mv-type=0/copy-pic=1/max-ausize-factor=1.0/no-dynamic-refine/no-single-sei
    Default : Да
    Forced : Нет
    Color range : Limited
    Основные цвета : BT.2020
    Характеристики трансфера : SMPTE ST 2084
    Коэффициенты матрицы : BT.2020 non-constant
    Mastering display color primaries : R: x=0.680000 y=0.320000, G: x=0.265000 y=0.690000, B: x=0.150000 y=0.060000, White point: x=0.312700 y=0.329000
    Mastering display luminance : min: 0.0000 cd/m2, max: 1000.0000 cd/m2
    Аудио #1
    Идентификатор : 2
    Формат : AAC
    Формат/Информация : Advanced Audio Codec
    Профиль формата : LC
    Идентификатор кодека : A_AAC
    Продолжительность : 1 ч. 44 м.
    Битрейт : 767 Кбит/сек
    Каналы : 8 каналов
    Расположение каналов : Front: L C R, Side: L R, Back: L R, LFE
    Частота : 48, 0 КГц
    Частота кадров : 46, 875 кадров/сек (1024 SPF)
    Метод сжатия : С потерями
    Задержка видео : 20 мс.
    Размер потока : 571 Мбайт (6%)
    Язык : English
    Default : Нет
    Forced : Нет
    Аудио #2
    Идентификатор : 3
    Формат : AAC
    Формат/Информация : Advanced Audio Codec
    Профиль формата : HE-AAC/LC
    Идентификатор кодека : A_AAC
    Продолжительность : 1 ч. 44 м.
    Битрейт : 66, 2 Кбит/сек
    Каналы : 2 канала
    Расположение каналов : Front: L R
    Частота : 48, 0 КГц/24, 0 КГц
    Частота кадров : 23, 438 кадра/сек (1024 SPF)
    Метод сжатия : С потерями
    Задержка видео : 40 мс.
    Размер потока : 49, 0 Мбайт (0%)
    Заголовок : Commentary
    Язык : English
    Default : Нет
    Forced : Нет
    Аудио #3
    Идентификатор : 6
    Формат : AC-3
    Формат/Информация : Audio Coding 3
    Параметр Endianness формата : Big
    Идентификатор кодека : A_AC3
    Продолжительность : 1 ч. 44 м.
    Вид битрейта : Постоянный
    Битрейт : 448 Кбит/сек
    Каналы : 6 каналов
    Расположение каналов : Front: L C R, Side: L R, LFE
    Частота : 48, 0 КГц
    Частота кадров : 31, 250 кадров/сек (1536 SPF)
    Битовая глубина : 16 бит
    Метод сжатия : С потерями
    Размер потока : 334 Мбайт (3%)
    Заголовок : Перевод: Дублированный (Лицензия BD CEE)
    Язык : Russian
    Service kind : Complete Main
    Default : Да
    Forced : Нет
    Аудио #4
    Идентификатор : 7
    Формат : AC-3
    Формат/Информация : Audio Coding 3
    Параметр Endianness формата : Big
    Идентификатор кодека : A_AC3
    Продолжительность : 1 ч. 44 м.
    Вид битрейта : Постоянный
    Битрейт : 640 Кбит/сек
    Каналы : 6 каналов
    Расположение каналов : Front: L C R, Side: L R, LFE
    Частота : 48, 0 КГц
    Частота кадров : 31, 250 кадров/сек (1536 SPF)
    Битовая глубина : 16 бит
    Метод сжатия : С потерями
    Размер потока : 476 Мбайт (5%)
    Заголовок : Перевод: Профессиональный (многоголосый, закадровый) (AlexFilm)
    Язык : Russian
    Service kind : Complete Main
    Default : Нет
    Forced : Нет
    Аудио #5
    Идентификатор : 8
    Формат : AC-3
    Формат/Информация : Audio Coding 3
    Параметр Endianness формата : Big
    Идентификатор кодека : A_AC3
    Продолжительность : 1 ч. 44 м.
    Вид битрейта : Постоянный
    Битрейт : 640 Кбит/сек
    Каналы : 6 каналов
    Расположение каналов : Front: L C R, Side: L R, LFE
    Частота : 48, 0 КГц
    Частота кадров : 31, 250 кадров/сек (1536 SPF)
    Битовая глубина : 16 бит
    Метод сжатия : С потерями
    Размер потока : 476 Мбайт (5%)
    Заголовок : Перевод: Авторский (одноголосый, закадровый) (М.Яроцкий)
    Язык : Russian
    Service kind : Complete Main
    Default : Нет
    Forced : Нет
    Аудио #6
    Идентификатор : 14
    Формат : AC-3
    Формат/Информация : Audio Coding 3
    Параметр Endianness формата : Big
    Идентификатор кодека : A_AC3
    Продолжительность : 1 ч. 44 м.
    Вид битрейта : Постоянный
    Битрейт : 448 Кбит/сек
    Каналы : 6 каналов
    Расположение каналов : Front: L C R, Side: L R, LFE
    Частота : 48, 0 КГц
    Частота кадров : 31, 250 кадров/сек (1536 SPF)
    Битовая глубина : 16 бит
    Метод сжатия : С потерями
    Размер потока : 334 Мбайт (3%)
    Заголовок : Перевод: Авторский (одноголосый закадровый) Андрей Гаврилов
    Язык : Russian
    Service kind : Complete Main
    Default : Нет
    Forced : Нет
    Текст #1
    Идентификатор : 4
    Формат : VobSub
    Режим смешивания : zlib
    Идентификатор кодека : S_VOBSUB
    Идентификатор кодека/Информация : Picture based subtitle format used on DVDs
    Продолжительность : 1 ч. 38 м.
    Битрейт : 10, 0 Кбит/сек
    Count of elements : 1414
    Размер потока : 7, 10 Мбайт (0%)
    Язык : English
    Default : Нет
    Forced : Нет
    Текст #2
    Идентификатор : 5
    Формат : VobSub
    Режим смешивания : zlib
    Идентификатор кодека : S_VOBSUB
    Идентификатор кодека/Информация : Picture based subtitle format used on DVDs
    Продолжительность : 1 ч. 43 м.
    Битрейт : 16, 2 Кбит/сек
    Count of elements : 1575
    Размер потока : 12, 0 Мбайт (0%)
    Заголовок : Commentary
    Язык : English
    Default : Нет
    Forced : Нет
    Текст #3
    Идентификатор : 9
    Формат : UTF-8
    Идентификатор кодека : S_TEXT/UTF8
    Идентификатор кодека/Информация : UTF-8 Plain Text
    Продолжительность : 1 ч. 40 м.
    Битрейт : 0 бит/сек
    Count of elements : 11
    Размер потока : 435 байт (0%)
    Заголовок : Форсированные
    Язык : Russian
    Default : Да
    Forced : Нет
    Текст #4
    Идентификатор : 10
    Формат : UTF-8
    Идентификатор кодека : S_TEXT/UTF8
    Идентификатор кодека/Информация : UTF-8 Plain Text
    Продолжительность : 1 ч. 39 м.
    Битрейт : 72 бит/сек
    Count of elements : 856
    Размер потока : 52, 6 Кбайт (0%)
    Заголовок : Translation: Sergey Koryagin
    Язык : Russian
    Default : Нет
    Forced : Нет
    Текст #5
    Идентификатор : 11
    Формат : UTF-8
    Идентификатор кодека : S_TEXT/UTF8
    Идентификатор кодека/Информация : UTF-8 Plain Text
    Продолжительность : 1 ч. 43 м.
    Битрейт : 59 бит/сек
    Count of elements : 1187
    Размер потока : 45, 2 Кбайт (0%)
    Заголовок : Blu-ray CEE
    Язык : Russian
    Default : Нет
    Forced : Нет
    Текст #6
    Идентификатор : 12
    Формат : UTF-8
    Идентификатор кодека : S_TEXT/UTF8
    Идентификатор кодека/Информация : UTF-8 Plain Text
    Продолжительность : 1 ч. 38 м.
    Битрейт : 53 бит/сек
    Count of elements : 1413
    Размер потока : 38, 7 Кбайт (0%)
    Заголовок : SDH
    Язык : English
    Default : Нет
    Forced : Нет
    Текст #7
    Идентификатор : 13
    Формат : UTF-8
    Идентификатор кодека : S_TEXT/UTF8
    Идентификатор кодека/Информация : UTF-8 Plain Text
    Продолжительность : 1 ч. 39 м.
    Битрейт : 67 бит/сек
    Count of elements : 1389
    Размер потока : 49, 0 Кбайт (0%)
    Заголовок : SDH-Colored
    Язык : English
    Default : Нет
    Forced : Нет
    Меню
    00: 00: 00.000 : en: Chapter 01
    00: 04: 52.583 : en: Chapter 02
    00: 10: 13.487 : en: Chapter 03
    00: 14: 02.341 : en: Chapter 04
    00: 19: 07.563 : en: Chapter 05
    00: 21: 49.516 : en: Chapter 06
    00: 26: 07.357 : en: Chapter 07
    00: 30: 51.099 : en: Chapter 08
    00: 37: 19.570 : en: Chapter 09
    00: 42: 16.575 : en: Chapter 10
    00: 48: 03.255 : en: Chapter 11
    00: 54: 13.500 : en: Chapter 12
    00: 57: 38.037 : en: Chapter 13
    01: 03: 33.851 : en: Chapter 14
    01: 10: 48.911 : en: Chapter 15
    01: 15: 36.448 : en: Chapter 16
    01: 22: 02.626 : en: Chapter 17
    01: 26: 13.334 : en: Chapter 18
    01: 32: 24.205 : en: Chapter 19
    01: 40: 22.266 : en: Chapter 20
    XMP
    Xmp.video.FileName : E: VideoПрочь (Get Out).mkv
    Xmp.video.FileSize : -9.53674e-007
    Xmp.video.MimeType : video/matroska
    Xmp.video.EBMLVersion : 1
    Xmp.video.EBMLReadVersion : 1
    Xmp.video.DocType : matroska
    Xmp.video.DocTypeVersion : 4
    Xmp.video.DocTypeReadVersion : 2
    Xmp.video.TimecodeScale : 0.001
    Xmp.video.MuxingApp : libebml v1.3.7 + libmatroska v1.5.0
    Xmp.video.WritingApp : mkvmerge v34.0.0 (\'Sight and Seen\') 64-bit
    Xmp.video.Duration : 6245331
    Xmp.video.DateUTC : 593603116
    Xmp.video.Title : Прочь/Get Out
    Xmp.video.TotalStream : 57
    Xmp.video.TrackLacing : No
    Xmp.video.Codec : V_MPEGH/ISO/HEVC
    Xmp.video.FrameRate : 23.976
    Xmp.video.TrackLang : und
    Xmp.video.TrackName : Перевод: Авторский (РѕРґРЅРѕРіРѕРосый закадровый) Андрей ГавриРРѕРІ
    Xmp.video.Width : 3840
    Xmp.video.Height : 1608
    Xmp.audio.DefaultOn : No
    Xmp.audio.Compressor : A_AC3
    Xmp.audio.DefaultDuration : 32000
    Xmp.audio.SampleRate : 48000
    Xmp.audio.ChannelType : Stereo
    Xmp.audio.OutputSampleRate : 48000
    Xmp.video.SubTDefaultOn : No
    Xmp.video.SubTTrackLacing : No
    Xmp.video.SubTCodec : S_TEXT/UTF8
    Xmp.audio.TrackLang : rus
    Xmp.video.SubTLang : rus
    Xmp.video.AttachFileName : cover.png
    Xmp.video.AttachFileMIME : image/png
    Xmp.video.AttachFileUID : 256840597
    Xmp.video.AttachFileDesc : Cover
    Xmp.video.AspectRatio : 2.35: 1
    H.265/HEVC (High Efficiency Video Coding) - это новый стандарт кодирования видео.
    *Рипы в фомате HEVC, в настоящее время поддерживается не всеми аппаратными проигрывателями.
    *Для корректного воспроизведения может потребоваться обновление ПО.
    *Стандарт H.265/HEVC является логическим продолжением стандарта H.264/AVC (Advanced Video Coding), и характеризуется более эффективными алгоритмами сжатия, а также поддержкой высокого разрешения вплоть до 8K UHD (8192x4320). Первая версия стандарта H.265 была опубликована в начале 2013 года.
    Любителям решения из коробки - установить последнюю версию на выбор:
    Media Player Classic - Black Edition (MPC-BE)
    VLC media player
    Daum Pot Player
    GOM Media Player
    Любителям WMP и других плееров, использующих по умолчанию для воспроизведения системные кодеки+сплитеры - установить K-Lite Codec Pack версии 10.1.0 и выше.
    Любимые плееры, не использующии по умолчанию для воспроизведения системные кодеки+сплитеры, нужно перенастроить на использование оных.Просмотр 4K HDR-контента на ПК

    Скриншоты для ознакомления




    Все одноименные релизы в Клубе
    Время раздачи: с 11: 00 до 21: 00 по Новосибирску (UTC +7) (до появления первых 3-5 скачавших)

    Онлайн видео Прочь



    Прочь/Get Out (2017) UHD BDRip [H.265/2160p] [4K, HDR, 10-bit]
    Рейтинг →
     (голосов: 1, оценка 4/5, голосовать можно 1 раз )

    Другие торренты по теме:

  • Прочь / Get Out (2017) BDRip [H.264 / 720p-LQ]
  • Прочь / Get Out (2017) BDRip [H.264 / 1080p]
  • Прочь / Get Out (2017) BDRip [H.264 / 720p]
  • Прочь / Get Out (2017) BDRip [H.264 / 1080p-LQ]
  • Прочь / Get Out (2017) BDRip [H.264 / 720p]
  • Прочь / Get Out (2017) BDRip [H.264 / 720p]
  • Прочь / Get Out (2017) BDRip [H.264 / 1080p]
  • Прочь / Get Out (2017) BDRip [H.264 / 720p]


    • Комментарии (0):

      Информация

      Информация

        Посетители, находящиеся в группе Гости, не могут оставлять комментарии в данной новости.

        ↓ Меню




        ↓ Опрос

        Вы добавили сайт в закладки?
        Да
        Нет


        Популярное