.
Авторизация | Регистрация

bitok.xyz

» » Спинорог Пикассо / Picasso Trigger (1988) BDRemux [H.264 / 1080p] [AVO] торрент скачать бесплатно


    Спинорог Пикассо / Picasso Trigger (1988) BDRemux [H.264 / 1080p] [AVO] торрент скачать бесплатно

    Дата: 27-10-2019, 05:00 | .torrent скачали: 0

    Спинорог Пикассо / Picasso Trigger (1988) BDRemux [H.264 / 1080p] [AVO]Производство: США/Malibu Bay Films, Andy Sidaris Company
    Жанр: Боевик, Триллер, Приключения
    Режиссер: Энди Сидарис
    Продюсер: Арлин Сидарис, Michael Donohew

    Актеры
    Стив Бонд, Дона Спейр, Хоуп Мари Карлтон, Харольд Даймонд, Джон Эпри, Роберта Васкес, Гуч Кук, Родриго Обрегон, Брюс Пенхалл, Синтия Бримхолл

    Описание

    Двойной агент Спинорог Пикассо убит в Париже двуличным злодеем Мигелем Ортисом. После этого Ортис начинает охоту на других сотрудников Агентства, причастных к смерти его брата. Агентство реагирует только с опозданием, посылая целую команду атлетически сложённых мужчин и прекрасных женщин остановить Ортиса. Фильм содержит обычную дозу стрельбы, романтики, гонок на самых разных транспортных средствах, включая одноместную лодку на воздушной подушке, и начинённых взрывчаткой игрушек.

    Возраст: 18+ (зрителям, достигшим 18 лет. запрещено для детей)
    Рейтинг MPAA: R (лицам до 17 лет обязательно присутствие взрослого)
    Релиз от: R.G. Goldenshara
    Продолжительность: 01: 38: 28
    Качество видео: BDRemux 1080p
    Перевод: Авторский (Андрей Дольский)
    Субтитры: Английские (SDH)
    Видео: AVC/H.264, 1920x1080 (16: 9), ~35.0 Mbps, 23.976 fps
    Аудио #1: AC3, 2 ch, 48.0 KHz, 192 kbps | Русский
    Аудио #2: DTS-HD MA, 2 ch, 48.0 KHz, 1687 kbps | Английский
    Аудио #3: AC3, 2 ch, 48.0 KHz, 384 kbps | Английский - (Комментарии)
    General
    Unique ID : 201846854542919159438390876274349295130 (0x97DA4A464079BF49BA65C539DD2FC61A)
    Complete name : E: Мои рипыСпинорог Пикассо.1988.BDRemux.1080p.R.G. Goldenshara.mkv
    Format : Matroska
    Format version : Version 4/Version 2
    File size : 25.6 GiB
    Duration : 1h 38mn
    Overall bit rate mode : Variable
    Overall bit rate : 37.3 Mbps
    Encoded date : UTC 2019-10-22 19: 03: 10
    Writing application : mkvmerge v6.8.0 (\'Theme for Great Cities\') 64bit built on Mar 2 2014 21: 34: 26
    Writing library : libebml v1.3.0 + libmatroska v1.4.1
    Video
    ID : 1
    Format : AVC
    Format/Info : Advanced Video Codec
    Format profile : High@L4.1
    Format settings, CABAC : Yes
    Format settings, ReFrames : 4 frames
    Codec ID : V_MPEG4/ISO/AVC
    Duration : 1h 38mn
    Bit rate mode : Variable
    Bit rate : 34.4 Mbps
    Maximum bit rate : 35.0 Mbps
    Width : 1 920 pixels
    Height : 1 080 pixels
    Display aspect ratio : 16: 9
    Frame rate mode : Constant
    Frame rate : 23.962 fps
    Original frame rate : 23.976 fps
    Standard : NTSC
    Color space : YUV
    Chroma subsampling : 4: 2: 0
    Bit depth : 8 bits
    Scan type : Progressive
    Bits/(Pixel*Frame) : 0.692
    Stream size : 23.7 GiB (92%)
    Language : English
    Default : Yes
    Forced : No
    Color primaries : BT.709
    Transfer characteristics : BT.709
    Matrix coefficients : BT.709
    Audio #1
    ID : 2
    Format : AC-3
    Format/Info : Audio Coding 3
    Mode extension : CM (complete main)
    Format settings, Endianness : Big
    Codec ID : A_AC3
    Duration : 1h 38mn
    Bit rate mode : Constant
    Bit rate : 192 Kbps
    Channel(s) : 2 channels
    Channel positions : Front: L R
    Sampling rate : 48.0 KHz
    Bit depth : 16 bits
    Compression mode : Lossy
    Delay relative to video : 817ms
    Stream size : 135 MiB (1%)
    Title : AVO Андрей Дольский
    Language : Russian
    Default : Yes
    Forced : No
    Audio #2
    ID : 3
    Format : DTS
    Format/Info : Digital Theater Systems
    Format profile : MA/Core
    Codec ID : A_DTS
    Duration : 1h 38mn
    Bit rate mode : Variable
    Bit rate : 1 558 Kbps/1 510 Kbps
    Channel(s) : 2 channels
    Channel positions : Front: L R
    Sampling rate : 48.0 KHz
    Bit depth : 24 bits
    Compression mode : Lossless/Lossy
    Language : English
    Default : No
    Forced : No
    Audio #3
    ID : 4
    Format : AC-3
    Format/Info : Audio Coding 3
    Mode extension : CM (complete main)
    Format settings, Endianness : Big
    Codec ID : A_AC3
    Duration : 1h 38mn
    Bit rate mode : Constant
    Bit rate : 384 Kbps
    Channel(s) : 2 channels
    Channel positions : Front: L R
    Sampling rate : 48.0 KHz
    Bit depth : 16 bits
    Compression mode : Lossy
    Stream size : 270 MiB (1%)
    Title : Комментарии
    Language : English
    Default : No
    Forced : No
    Text
    ID : 5
    Format : UTF-8
    Codec ID : S_TEXT/UTF8
    Codec ID/Info : UTF-8 Plain Text
    Title : SDH
    Language : English
    Default : No
    Forced : No
    Menu
    00: 00: 00.000 : en: Chapter 1
    00: 11: 46.914 : en: Chapter 2
    00: 21: 02.344 : en: Chapter 3
    00: 29: 18.256 : en: Chapter 4
    00: 39: 15.227 : en: Chapter 5
    00: 48: 53.472 : en: Chapter 6
    00: 59: 07.043 : en: Chapter 7
    01: 04: 54.056 : en: Chapter 8
    01: 11: 10.015 : en: Chapter 9
    01: 19: 19.629 : en: Chapter 10
    01: 27: 47.303 : en: Chapter 11
    01: 35: 32.393 : en: Chapter 12
    01: 38: 28.110 : en: Chapter 13
    01: 38: 28.444 : en: Chapter 14

    File: E: Мои рипыСпинорог Пикассо.1988.BDRemux.1080p.R.G. Goldenshara.mkv
    Duration: 01: 38: 28 (5908.49)
    Track #1: video
    lang: Unknown (1)
    codc: V_MPEG4/ISO/AVC - H264/AVC (22)
    reso: 1920x1080 (1920x1080) - 16: 9
    fram: 23.976 fps
    rate: 34999 kbps (34999.2)
    dura: 01: 38: 28 (5908.44)
    size: 24.07 GB (25848886155)
    Track #2: audio (AVO ￐メ. ￐ヤ￐ᄒ￑ナ￐ᄚ￐ᄏ￐ᄒ￐ᄇ)
    lang: rus - Russian (15)
    codc: A_AC3 - AC3 (2)
    chan: 2 - Stereo
    samp: 48000 Hz
    rate: 192 kbps (192.04)
    dura: 01: 38: 26 (5905.95)
    size: 135.21 MB (141774729)
    Track #3: audio
    lang: Unknown (1)
    codc: A_DTS - DTS (13)
    chan: 2 - Stereo
    samp: 48000 Hz
    rate: 1687 kbps (1686.80)
    dura: 01: 38: 28 (5908.41)
    size: 1.16 GB (1245787467)
    Track #4: audio (￐レ￐ᄒ￐ᄐ￐ᄐ￐ᄉ￐ᄑ￑ツ￐ᄚ￑タ￐ᄌ￐ᄌ)
    lang: Unknown (1)
    codc: A_AC3 - AC3 (2)
    chan: 2 - Stereo
    samp: 48000 Hz
    rate: 384 kbps (384.04)
    dura: 01: 38: 28 (5908.42)
    size: 270.50 MB (283635849)
    Track #5: subtitles (SDH)
    lang: Unknown (1)
    type: S_TEXT/UTF8 - SRT (3)
    size: 37.63 KB (38532)
    Sizes: (check sanity)
    disk: 25.63 GB (27522763693)
    trac: 1.63 GB (1750318956) based on track size
    bitr: 25.63 GB (27520154084) based on bitrate
    tdif: 24.00 GB (25772444737) 93.64%
    bdif: 2.49 MB (2609608) 0.00%


    Онлайн видео Спинорог Пикассо



    Спинорог Пикассо/Picasso Trigger (1988) BDRemux [H.264/1080p] [AVO]
    Рейтинг →
     (голосов: 1, оценка 3/5, голосовать можно 1 раз )

    Другие торренты по теме:

  • Спинорог Пикассо / Picasso Trigger (1988) BDRip


    • Комментарии (0):

      Информация

      Информация

        Посетители, находящиеся в группе Гости, не могут оставлять комментарии в данной новости.

        ↓ Меню




        ↓ Опрос

        Вы добавили сайт в закладки?
        Да
        Нет


        Популярное