.
Авторизация | Регистрация

bitok.xyz

» » Авантюристы / The Adventurers (2017) BDRemux [H.264 / 1080p] [MVO] торрент скачать бесплатно


    Авантюристы / The Adventurers (2017) BDRemux [H.264 / 1080p] [MVO] торрент скачать бесплатно

    Дата: 27-10-2019, 05:00 | .torrent скачали: 0

    Авантюристы / The Adventurers (2017) BDRemux [H.264 / 1080p] [MVO]Производство: Гонконг, Франция, Китай, Gravity Pictures, China Film Group Corporation (CFGC), China Media Capital
    Жанр: Боевик, драма, криминал, приключения
    Режиссер: Стивен Фун

    Актеры
    Жан Рено, Энди Лау, Шу Ци, Тони Ян, Чжан Цзинчу, Ша И, Эрик Цан, Ю Тяньи, Yiqun Zhang, Гэн Сэто

    Описание

    Знаменитый вор Чжан вышел из тюрьмы и уже готов провернуть международную аферу с ограблением в Каннах. У него на хвосте висит французский коп Пьер, с которым у Чжана давние счеты. Подельник По нанимает в помощницы очаровательную Рэд, с помощью которой воры рассчитывают похитить три ожерелья, вместе составляющие бесценное сокровище.

    Релиз от: mike7025
    Продолжительность: 01: 46: 59
    Качество видео: BDRemux
    Перевод: Многоголосый любительский, авторский
    Субтитры: Английские
    Видео: AVC/H.264, 1920x1080, ~31.2 Mbps
    Аудио 1: AC3, 6 ch, 384 Kbps - Русский (МVO, Muzoboz)
    Аудио 2: AC3, 6 ch, 448 Kbps - Русский (АVO, Ю.Живов)
    Аудио 3: TrueHD, 8 ch, 3972 Kbps - Китайский
    Аудио 4: AC3, 6 ch, 640 Kbps - Китайский
    General
    Unique ID : 196868275603550921627542442317143969540 (0x941B7361A17386831AFD2A13DE0D8F04)
    Complete name : G: The.Adventurers.2017.REMUX.mkv
    Format : Matroska
    Format version : Version 4/Version 2
    File size : 27.4 GiB
    Duration : 1 h 46 min
    Overall bit rate mode : Variable
    Overall bit rate : 36.7 Mb/s
    Movie name : The.Adventurers.2017.1080p.BluRay.REMUX.AVC.TrueHD.7.1-FGT
    Encoded date : UTC 2018-09-14 03: 10: 14
    Writing application : mkvmerge v20.0.0 (\'I Am The Sun\') 64-bit
    Writing library : libebml v1.3.5 + libmatroska v1.4.8
    Video
    ID : 1
    Format : AVC
    Format/Info : Advanced Video Codec
    Format profile : High@L4.1
    Format settings : CABAC/4 Ref Frames
    Format settings, CABAC : Yes
    Format settings, RefFrames : 4 frames
    Codec ID : V_MPEG4/ISO/AVC
    Duration : 1 h 46 min
    Bit rate mode : Constant
    Bit rate : 31.2 Mb/s
    Nominal bit rate : 33.0 Mb/s
    Width : 1 920 pixels
    Height : 1 080 pixels
    Display aspect ratio : 16: 9
    Frame rate mode : Constant
    Frame rate : 24.000 FPS
    Standard : NTSC
    Color space : YUV
    Chroma subsampling : 4: 2: 0
    Bit depth : 8 bits
    Scan type : Progressive
    Bits/(Pixel*Frame) : 0.627
    Stream size : 23.3 GiB (85%)
    Language : English
    Default : Yes
    Forced : No
    Color range : Limited
    Color primaries : BT.709
    Transfer characteristics : BT.709
    Matrix coefficients : BT.709
    Audio #1
    ID : 2
    Format : AC-3
    Format/Info : Audio Coding 3
    Codec ID : A_AC3
    Duration : 1 h 46 min
    Bit rate mode : Constant
    Bit rate : 384 kb/s
    Channel(s) : 6 channels
    Channel positions : Front: L C R, Side: L R, LFE
    Sampling rate : 48.0 kHz
    Frame rate : 31.250 FPS (1536 SPF)
    Bit depth : 16 bits
    Compression mode : Lossy
    Stream size : 294 MiB (1%)
    Title : muzoboz
    Language : Russian
    Service kind : Complete Main
    Default : Yes
    Forced : No
    Audio #2
    ID : 3
    Format : AC-3
    Format/Info : Audio Coding 3
    Codec ID : A_AC3
    Duration : 1 h 46 min
    Bit rate mode : Constant
    Bit rate : 448 kb/s
    Channel(s) : 6 channels
    Channel positions : Front: L C R, Side: L R, LFE
    Sampling rate : 48.0 kHz
    Frame rate : 31.250 FPS (1536 SPF)
    Bit depth : 16 bits
    Compression mode : Lossy
    Stream size : 343 MiB (1%)
    Title : jivov
    Language : Russian
    Service kind : Complete Main
    Default : No
    Forced : No
    Audio #3
    ID : 4
    Format : TrueHD
    Codec ID : A_TRUEHD
    Duration : 1 h 46 min
    Bit rate mode : Variable
    Bit rate : 3 972 kb/s
    Maximum bit rate : 6 936 kb/s
    Channel(s) : 8 channels
    Channel positions : Front: L C R, Side: L R, Back: L R, LFE
    Sampling rate : 96.0 kHz
    Frame rate : 2 400.000 FPS (40 SPF)
    Compression mode : Lossless
    Stream size : 2.97 GiB (11%)
    Title : The.Adventurers.2017.1080p.BluRay.REMUX.AVC.TrueHD.7.1-FGT
    Language : Chinese
    Default : No
    Forced : No
    Audio #4
    ID : 5
    Format : AC-3
    Format/Info : Audio Coding 3
    Codec ID : A_AC3
    Duration : 1 h 46 min
    Bit rate mode : Constant
    Bit rate : 640 kb/s
    Channel(s) : 6 channels
    Channel positions : Front: L C R, Side: L R, LFE
    Sampling rate : 48.0 kHz
    Frame rate : 31.250 FPS (1536 SPF)
    Bit depth : 16 bits
    Compression mode : Lossy
    Stream size : 490 MiB (2%)
    Language : Chinese
    Service kind : Complete Main
    Default : No
    Forced : No
    Text
    ID : 6
    Format : UTF-8
    Codec ID : S_TEXT/UTF8
    Codec ID/Info : UTF-8 Plain Text
    Duration : 1 h 40 min
    Bit rate : 34 b/s
    Count of elements : 1051
    Stream size : 25.1 KiB (0%)
    Language : English
    Default : No
    Forced : No
    Menu
    00: 00: 00.000 : en: Chapter 01
    00: 08: 04.000 : en: Chapter 02
    00: 19: 07.916 : en: Chapter 03
    00: 26: 16.416 : en: Chapter 04
    00: 34: 50.875 : en: Chapter 05
    00: 44: 29.791 : en: Chapter 06
    00: 55: 30.500 : en: Chapter 07
    01: 01: 27.833 : en: Chapter 08
    01: 11: 12.708 : en: Chapter 09
    01: 19: 45.666 : en: Chapter 10
    01: 29: 51.208 : en: Chapter 11
    01: 39: 49.250 : en: Chapter 12

    Скриншоты для ознакомления




    Все одноименные релизы в Клубе
    Время раздачи: 24/7 (до появления первых 3-5 скачавших)

    Онлайн видео Авантюристы



    Авантюристы/The Adventurers (2017) BDRemux [H.264/1080p] [MVO]
    Рейтинг →
     (голосов: 1, оценка 4/5, голосовать можно 1 раз )

    Другие торренты по теме:

  • Авантюристы / The Adventurers (2017) WEB-DLRip [H.264 / 720p] [MVO, AD]
  • Авантюристы / The Adventurers (2017) WEB-DLRip [MVO ][AD]
  • Авантюристы / The Adventurers (2017) WEB-DLRip [H.264 / 1080p-LQ] [MVO] [AD]
  • Авантюристы / The Adventurers (2017) BDRip [H.264 / 1080p] [MVO]
  • Авантюристы / The Adventurers (2017) BDRip [MVO]


    • Комментарии (0):

      Информация

      Информация

        Посетители, находящиеся в группе Гости, не могут оставлять комментарии в данной новости.

        ↓ Меню




        ↓ Опрос

        Вы добавили сайт в закладки?
        Да
        Нет


        Популярное