.
Авторизация | Регистрация

bitok.xyz

» » Женская версия. Романтик из СССР (2019) SATRip [H.264] (фильм 3, серии 1-2 из 2) торрент скачать бесплатно


    Женская версия. Романтик из СССР (2019) SATRip [H.264] (фильм 3, серии 1-2 из 2) торрент скачать бесплатно

    Дата: 27-10-2019, 05:00 | .torrent скачали: 0

    Женская версия. Романтик из СССР (2019) SATRip [H.264] (фильм 3, серии 1-2 из 2)Производство: Россия/Аквилон Медиа
    Жанр: детектив
    Режиссер: Валерия Ивановская

    Актеры
    Софья Ардова, Галина Сазонова, Кирилл Жандаров, Влад Канопка, Илья Коробко, Глеб Бочков, Анатолий Котенёв, Евгения Ахременко, Андрей Грачёв, Ксения Кастор и др.

    Описание

    Олеся Кондрашова, работавшая в модельном бизнесе, насмерть сбита автомобилем. Однако сестра Кондрашовой на опознании утверждает, что погибшая – не Олеся, хотя и очень похожа на неё. Тане предстоит выяснить, кто же эта загадочная девушка, и где сама Олеся...
    Дата российской премьеры: 26 октября 2019 ТВЦ
    Продолжительность: ~00: 47: 24+00: 49: 34 серия
    Качество видео: SATRip
    Видео: AVC/H.264, 720х400 , ~1500 Kbps
    Аудио: AAC, 2 ch, 192 KbpsОбщее
    Уникальный идентификатор : 180794561891883788448162685893908841434 (0x8803C41C0C90B4C6806557A3A2E743DA)
    Полное имя : G: Женская версия.Романтик из СССР1 серия_Женская версия.Романтик из СССР_rip by_Aleksan55.mkv
    Формат : Matroska
    Версия формата : Version 2
    Размер файла : 574 Мбайт
    Продолжительность : 47 м. 23 с.
    Общий поток : 1693 Кбит/сек
    Дата кодирования : UTC 2019-10-26 11: 21: 04
    Программа кодирования : mkvmerge v7.8.0 (\'River Man\') 32bit built on Apr 3 2015 12: 11: 22
    Библиотека кодирования : libebml v1.3.1 + libmatroska v1.4.2
    Видео
    Идентификатор : 1
    Формат : AVC
    Формат/Информация : Advanced Video Codec
    Профиль формата : High@L4.1
    Настройки формата : CABAC/12 Ref Frames
    Параметр CABAC формата : Да
    Параметр RefFrames формата : 12 кадров
    Идентификатор кодека : V_MPEG4/ISO/AVC
    Продолжительность : 47 м. 23 с.
    Битрейт : 1500 Кбит/сек
    Ширина : 720 пикселей
    Высота : 400 пикселей
    Соотношение сторон : 16: 9
    Режим частоты кадров : Постоянный
    Частота кадров : 25, 000 кадров/сек
    Цветовое пространство : YUV
    Субдискретизация насыщенности : 4: 2: 0
    Битовая глубина : 8 бит
    Тип развёртки : Прогрессивная
    Бит/(Пиксели*Кадры) : 0.208
    Размер потока : 498 Мбайт (87%)
    Библиотека кодирования : x264 core 152 r2851kMod ba24899
    Настройки программы : cabac=1/ref=12/deblock=1: -2: -2/analyse=0x3: 0x133/me=umh/subme=9/psy=1/fade_compensate=0.00/psy_rd=1.00: 0.15/mixed_ref=0/me_range=24/chroma_me=1/trellis=2/8x8dct=1/cqm=0/deadzone=21, 11/fast_pskip=0/chroma_qp_offset=-3/threads=10/lookahead_threads=5/sliced_threads=0/nr=0/decimate=0/interlaced=0/bluray_compat=0/constrained_intra=0/bframes=12/b_pyramid=2/b_adapt=2/b_bias=0/direct=3/weightb=1/open_gop=0/weightp=2/keyint=250/keyint_min=25/scenecut=40/intra_refresh=0/rc_lookahead=40/rc=2pass/mbtree=1/bitrate=1500/ratetol=1.0/qcomp=0.60/qpmin=0/qpmax=60/qpstep=4/cplxblur=20.0/qblur=0.5/ip_ratio=1.40/aq=1: 1.00
    Default : Да
    Forced : Нет
    Цветовой диапазон : Limited
    Основные цвета : BT.601 PAL
    Характеристики трансфера : BT.470 System B/G
    Коэффициенты матрицы : BT.470 System B/G
    Аудио
    Идентификатор : 2
    Формат : AC-3
    Формат/Информация : Audio Coding 3
    Коммерческое название : Dolby Digital
    Идентификатор кодека : A_AC3
    Продолжительность : 47 м. 23 с.
    Вид битрейта : Постоянный
    Битрейт : 192 Кбит/сек
    Каналы : 2 канала
    ChannelLayout : L R
    Частота : 48, 0 КГц
    Частота кадров : 31, 250 кадров/сек (1536 SPF)
    Метод сжатия : С потерями
    Размер потока : 65, 1 Мбайт (11%)
    ServiceKind/String : Complete Main
    Default : Да
    Forced : Нет
    Общее
    Уникальный идентификатор : 184717839721769171909835388457675817042 (0x8AF75CA40DDD02C09FC47F09292E8052)
    Полное имя : G: Женская версия.Романтик из СССР2 серия_Женская версия.Романтик из СССР_rip by_Aleksan55.mkv
    Формат : Matroska
    Версия формата : Version 2
    Размер файла : 601 Мбайт
    Продолжительность : 49 м. 33 с.
    Общий поток : 1694 Кбит/сек
    Дата кодирования : UTC 2019-10-26 11: 58: 32
    Программа кодирования : mkvmerge v7.8.0 (\'River Man\') 32bit built on Apr 3 2015 12: 11: 22
    Библиотека кодирования : libebml v1.3.1 + libmatroska v1.4.2
    Видео
    Идентификатор : 1
    Формат : AVC
    Формат/Информация : Advanced Video Codec
    Профиль формата : High@L4.1
    Настройки формата : CABAC/12 Ref Frames
    Параметр CABAC формата : Да
    Параметр RefFrames формата : 12 кадров
    Идентификатор кодека : V_MPEG4/ISO/AVC
    Продолжительность : 49 м. 33 с.
    Битрейт : 1500 Кбит/сек
    Ширина : 720 пикселей
    Высота : 400 пикселей
    Соотношение сторон : 16: 9
    Режим частоты кадров : Постоянный
    Частота кадров : 25, 000 кадров/сек
    Цветовое пространство : YUV
    Субдискретизация насыщенности : 4: 2: 0
    Битовая глубина : 8 бит
    Тип развёртки : Прогрессивная
    Бит/(Пиксели*Кадры) : 0.208
    Размер потока : 521 Мбайт (87%)
    Библиотека кодирования : x264 core 152 r2851kMod ba24899
    Настройки программы : cabac=1/ref=12/deblock=1: -2: -2/analyse=0x3: 0x133/me=umh/subme=9/psy=1/fade_compensate=0.00/psy_rd=1.00: 0.15/mixed_ref=0/me_range=24/chroma_me=1/trellis=2/8x8dct=1/cqm=0/deadzone=21, 11/fast_pskip=0/chroma_qp_offset=-3/threads=10/lookahead_threads=5/sliced_threads=0/nr=0/decimate=0/interlaced=0/bluray_compat=0/constrained_intra=0/bframes=12/b_pyramid=2/b_adapt=2/b_bias=0/direct=3/weightb=1/open_gop=0/weightp=2/keyint=250/keyint_min=25/scenecut=40/intra_refresh=0/rc_lookahead=40/rc=2pass/mbtree=1/bitrate=1500/ratetol=1.0/qcomp=0.60/qpmin=0/qpmax=60/qpstep=4/cplxblur=20.0/qblur=0.5/ip_ratio=1.40/aq=1: 1.00
    Default : Да
    Forced : Нет
    Цветовой диапазон : Limited
    Основные цвета : BT.601 PAL
    Характеристики трансфера : BT.470 System B/G
    Коэффициенты матрицы : BT.470 System B/G
    Аудио
    Идентификатор : 2
    Формат : AC-3
    Формат/Информация : Audio Coding 3
    Коммерческое название : Dolby Digital
    Идентификатор кодека : A_AC3
    Продолжительность : 49 м. 33 с.
    Вид битрейта : Постоянный
    Битрейт : 192 Кбит/сек
    Каналы : 2 канала
    ChannelLayout : L R
    Частота : 48, 0 КГц
    Частота кадров : 31, 250 кадров/сек (1536 SPF)
    Метод сжатия : С потерями
    Размер потока : 68, 1 Мбайт (11%)
    ServiceKind/String : Complete Main
    Default : Да
    Forced : Нет
    File: G: Женская версия.Романтик из СССР1 серия_Женская версия.Романтик из СССР_rip by_Aleksan55.mkv
    Duration: 00: 47: 24 (2843.71)
    Track #1: video
    lang: und (1)
    codc: V_MPEG4/ISO/AVC - H264/AVC (22)
    reso: 720x400 (720x400) - 16: 9
    fram: 25 fps
    rate: 1500 kbps (1499.64)
    dura: 00: 47: 24 (2843.64)
    size: 508.36 MB (533053915)
    Track #2: audio
    lang: und - Unknown (1)
    codc: A_AC3 - AC3 (2)
    chan: 2 - Stereo
    samp: 48000 Hz
    rate: 192 kbps (192.05)
    dura: 00: 47: 23 (2843.49)
    size: 65.10 MB (68260472)
    Sizes: (check sanity)
    disk: 574.05 MB (601931737)
    trac: 573.46 MB (601314387) based on track size
    bitr: 573.46 MB (601317889) based on bitrate
    tdif: 602.88 KB (617350) 0.10%
    bdif: 599.46 KB (613847) 0.10%
    File: G: Женская версия.Романтик из СССР2 серия_Женская версия.Романтик из СССР_rip by_Aleksan55.mkv
    Duration: 00: 49: 34 (2973.95)
    Track #1: video
    lang: und (1)
    codc: V_MPEG4/ISO/AVC - H264/AVC (22)
    reso: 720x400 (720x400) - 16: 9
    fram: 25 fps
    rate: 1500 kbps (1500.34)
    dura: 00: 49: 34 (2973.88)
    size: 531.89 MB (557727562)
    Track #2: audio
    lang: und - Unknown (1)
    codc: A_AC3 - AC3 (2)
    chan: 2 - Stereo
    samp: 48000 Hz
    rate: 192 kbps (192.04)
    dura: 00: 49: 34 (2973.82)
    size: 68.08 MB (71386766)
    Sizes: (check sanity)
    disk: 600.59 MB (629762216)
    trac: 599.97 MB (629114328) based on track size
    bitr: 599.97 MB (629115585) based on bitrate
    tdif: 632.70 KB (647888) 0.10%
    bdif: 631.47 KB (646630) 0.10%
    Скриншоты для ознакомления


    Все одноименные релизы в Клубе
    Время раздачи: (до появления первых 3-5 скачавших)

    Женская версия. Романтик из СССР (2019) SATRip [H.264] (фильм 3, серии 1-2 из 2)
    Рейтинг →
     (голосов: 1, оценка 3/5, голосовать можно 1 раз )

    Другие торренты по теме:

  • Женская версия. Дедушкина внучка (2018) WEB-DLRip (сезон 1, серии 1-4 из 4)
  • Женская версия. Ваше время и стекло (2019) SATRip [H.264] (фильм 2, серии 1-2 из 2)
  • Женская версия. Чисто советское убийство (2019) SATRip [H.264] (фильм 4, серии 1-4 из 4)
  • Женская версия. Тайна партийной дачи (2019) SATRip [H.264] (фильм 5, серии 1-4 из 4)


    • Комментарии (0):

      Информация

      Информация

        Посетители, находящиеся в группе Гости, не могут оставлять комментарии в данной новости.

        ↓ Меню




        ↓ Опрос

        Вы добавили сайт в закладки?
        Да
        Нет


        Популярное