.
Авторизация | Регистрация

bitok.xyz

» » Женская версия. Ваше время и стекло (2019) SATRip [H.264] (фильм 2, серии 1-2 из 2) торрент скачать бесплатно


    Женская версия. Ваше время и стекло (2019) SATRip [H.264] (фильм 2, серии 1-2 из 2) торрент скачать бесплатно

    Дата: 27-10-2019, 05:00 | .torrent скачали: 0

    Женская версия. Ваше время и стекло (2019) SATRip [H.264] (фильм 2, серии 1-2 из 2)Производство: Россия/Аквилон Медиа
    Жанр: детектив
    Режиссер: Валерия Ивановская

    Актеры
    Софья Ардова, Галина Сазонова, Кирилл Жандаров, Влад Канопка, Илья Коробко, Анатолий Котенёв, Евгения Ахременко, Андрей Грачёв, Ксения Кастор, Александр Мякушко и др.

    Описание

    Задушен частный детектив, а свидетели по делу один за другим погибают. Объединяет все эти преступления улика, которую находят при каждой жертве – осколок стекла. Все осколки складываются как пазл – похоже, чтобы выйти на убийцу, надо понять, что было разбито.
    Дата российской премьеры: 26 октября 2019 ТВЦ
    Продолжительность: ~00: 46: 27+00: 49: 48 серия
    Качество видео: SATRip
    Видео: AVC/H.264, 720х400 , ~1500 Kbps
    Аудио: AAC, 2 ch, 192 KbpsОбщее
    Уникальный идентификатор : 200095246200920154490335608971215735045 (0x9688F150C6920461915EE15A72678905)
    Полное имя : G: Женская версия.Ваше время и стекло1 серия_Женская версия.mkv
    Формат : Matroska
    Версия формата : Version 2
    Размер файла : 563 Мбайт
    Продолжительность : 46 м. 26 с.
    Общий поток : 1694 Кбит/сек
    Дата кодирования : UTC 2019-10-26 10: 15: 53
    Программа кодирования : mkvmerge v7.8.0 (\'River Man\') 32bit built on Apr 3 2015 12: 11: 22
    Библиотека кодирования : libebml v1.3.1 + libmatroska v1.4.2
    Видео
    Идентификатор : 1
    Формат : AVC
    Формат/Информация : Advanced Video Codec
    Профиль формата : High@L4.1
    Настройки формата : CABAC/12 Ref Frames
    Параметр CABAC формата : Да
    Параметр RefFrames формата : 12 кадров
    Идентификатор кодека : V_MPEG4/ISO/AVC
    Продолжительность : 46 м. 26 с.
    Битрейт : 1500 Кбит/сек
    Ширина : 720 пикселей
    Высота : 400 пикселей
    Соотношение сторон : 16: 9
    Режим частоты кадров : Постоянный
    Частота кадров : 25, 000 кадров/сек
    Цветовое пространство : YUV
    Субдискретизация насыщенности : 4: 2: 0
    Битовая глубина : 8 бит
    Тип развёртки : Прогрессивная
    Бит/(Пиксели*Кадры) : 0.208
    Размер потока : 488 Мбайт (87%)
    Библиотека кодирования : x264 core 152 r2851kMod ba24899
    Настройки программы : cabac=1/ref=12/deblock=1: -2: -2/analyse=0x3: 0x133/me=umh/subme=9/psy=1/fade_compensate=0.00/psy_rd=1.00: 0.15/mixed_ref=0/me_range=24/chroma_me=1/trellis=2/8x8dct=1/cqm=0/deadzone=21, 11/fast_pskip=0/chroma_qp_offset=-3/threads=10/lookahead_threads=5/sliced_threads=0/nr=0/decimate=0/interlaced=0/bluray_compat=0/constrained_intra=0/bframes=12/b_pyramid=2/b_adapt=2/b_bias=0/direct=3/weightb=1/open_gop=0/weightp=2/keyint=250/keyint_min=25/scenecut=40/intra_refresh=0/rc_lookahead=40/rc=2pass/mbtree=1/bitrate=1500/ratetol=1.0/qcomp=0.60/qpmin=0/qpmax=60/qpstep=4/cplxblur=20.0/qblur=0.5/ip_ratio=1.40/aq=1: 1.00
    Default : Да
    Forced : Нет
    Цветовой диапазон : Limited
    Основные цвета : BT.601 PAL
    Характеристики трансфера : BT.470 System B/G
    Коэффициенты матрицы : BT.470 System B/G
    Аудио
    Идентификатор : 2
    Формат : AC-3
    Формат/Информация : Audio Coding 3
    Коммерческое название : Dolby Digital
    Идентификатор кодека : A_AC3
    Продолжительность : 46 м. 26 с.
    Вид битрейта : Постоянный
    Битрейт : 192 Кбит/сек
    Каналы : 2 канала
    ChannelLayout : L R
    Частота : 48, 0 КГц
    Частота кадров : 31, 250 кадров/сек (1536 SPF)
    Метод сжатия : С потерями
    Размер потока : 63, 8 Мбайт (11%)
    ServiceKind/String : Complete Main
    Default : Да
    Forced : Нет
    Общее
    Уникальный идентификатор : 174327116073008345430348704868753203615 (0x83262E697051CCAD8B5D183D6913E19F)
    Полное имя : G: Женская версия.Ваше время и стекло2 серия_Женская версия.mkv
    Формат : Matroska
    Версия формата : Version 2
    Размер файла : 603 Мбайт
    Продолжительность : 49 м. 47 с.
    Общий поток : 1694 Кбит/сек
    Дата кодирования : UTC 2019-10-26 10: 48: 33
    Программа кодирования : mkvmerge v7.8.0 (\'River Man\') 32bit built on Apr 3 2015 12: 11: 22
    Библиотека кодирования : libebml v1.3.1 + libmatroska v1.4.2
    Видео
    Идентификатор : 1
    Формат : AVC
    Формат/Информация : Advanced Video Codec
    Профиль формата : High@L4.1
    Настройки формата : CABAC/12 Ref Frames
    Параметр CABAC формата : Да
    Параметр RefFrames формата : 12 кадров
    Идентификатор кодека : V_MPEG4/ISO/AVC
    Продолжительность : 49 м. 47 с.
    Битрейт : 1500 Кбит/сек
    Ширина : 720 пикселей
    Высота : 400 пикселей
    Соотношение сторон : 16: 9
    Режим частоты кадров : Постоянный
    Частота кадров : 25, 000 кадров/сек
    Цветовое пространство : YUV
    Субдискретизация насыщенности : 4: 2: 0
    Битовая глубина : 8 бит
    Тип развёртки : Прогрессивная
    Бит/(Пиксели*Кадры) : 0.208
    Размер потока : 523 Мбайт (87%)
    Библиотека кодирования : x264 core 152 r2851kMod ba24899
    Настройки программы : cabac=1/ref=12/deblock=1: -2: -2/analyse=0x3: 0x133/me=umh/subme=9/psy=1/fade_compensate=0.00/psy_rd=1.00: 0.15/mixed_ref=0/me_range=24/chroma_me=1/trellis=2/8x8dct=1/cqm=0/deadzone=21, 11/fast_pskip=0/chroma_qp_offset=-3/threads=10/lookahead_threads=5/sliced_threads=0/nr=0/decimate=0/interlaced=0/bluray_compat=0/constrained_intra=0/bframes=12/b_pyramid=2/b_adapt=2/b_bias=0/direct=3/weightb=1/open_gop=0/weightp=2/keyint=250/keyint_min=25/scenecut=40/intra_refresh=0/rc_lookahead=40/rc=2pass/mbtree=1/bitrate=1500/ratetol=1.0/qcomp=0.60/qpmin=0/qpmax=60/qpstep=4/cplxblur=20.0/qblur=0.5/ip_ratio=1.40/aq=1: 1.00
    Default : Да
    Forced : Нет
    Цветовой диапазон : Limited
    Основные цвета : BT.601 PAL
    Характеристики трансфера : BT.470 System B/G
    Коэффициенты матрицы : BT.470 System B/G
    Аудио
    Идентификатор : 2
    Формат : AC-3
    Формат/Информация : Audio Coding 3
    Коммерческое название : Dolby Digital
    Идентификатор кодека : A_AC3
    Продолжительность : 49 м. 47 с.
    Вид битрейта : Постоянный
    Битрейт : 192 Кбит/сек
    Каналы : 2 канала
    ChannelLayout : L R
    Частота : 48, 0 КГц
    Частота кадров : 31, 250 кадров/сек (1536 SPF)
    Метод сжатия : С потерями
    Размер потока : 68, 4 Мбайт (11%)
    ServiceKind/String : Complete Main
    Default : Да
    Forced : Нет
    File: G: Женская версия.Ваше время и стекло1 серия_Женская версия.mkv
    Duration: 00: 46: 27 (2786.91)
    Track #1: video
    lang: und (1)
    codc: V_MPEG4/ISO/AVC - H264/AVC (22)
    reso: 720x400 (720x400) - 16: 9
    fram: 25 fps
    rate: 1500 kbps (1500.29)
    dura: 00: 46: 27 (2786.84)
    size: 498.42 MB (522635362)
    Track #2: audio
    lang: und - Unknown (1)
    codc: A_AC3 - AC3 (2)
    chan: 2 - Stereo
    samp: 48000 Hz
    rate: 192 kbps (192.03)
    dura: 00: 46: 27 (2786.88)
    size: 63.80 MB (66897045)
    Sizes: (check sanity)
    disk: 562.80 MB (590137942)
    trac: 562.22 MB (589532407) based on track size
    bitr: 562.22 MB (589531280) based on bitrate
    tdif: 591.34 KB (605535) 0.10%
    bdif: 592.44 KB (606661) 0.10%
    File: G: Женская версия.Ваше время и стекло2 серия_Женская версия.mkv
    Duration: 00: 49: 48 (2987.74)
    Track #1: video
    lang: und (1)
    codc: V_MPEG4/ISO/AVC - H264/AVC (22)
    reso: 720x400 (720x400) - 16: 9
    fram: 25 fps
    rate: 1500 kbps (1500.35)
    dura: 00: 49: 48 (2987.68)
    size: 534.36 MB (560321894)
    Track #2: audio
    lang: und - Unknown (1)
    codc: A_AC3 - AC3 (2)
    chan: 2 - Stereo
    samp: 48000 Hz
    rate: 192 kbps (192.04)
    dura: 00: 49: 48 (2987.65)
    size: 68.40 MB (71717816)
    Sizes: (check sanity)
    disk: 603.38 MB (632688574)
    trac: 602.76 MB (632039710) based on track size
    bitr: 602.76 MB (632040370) based on bitrate
    tdif: 633.66 KB (648864) 0.10%
    bdif: 633.01 KB (648203) 0.10%
    Скриншоты для ознакомления


    Все одноименные релизы в Клубе
    Время раздачи: (до появления первых 3-5 скачавших)

    Женская версия. Ваше время и стекло (2019) SATRip [H.264] (фильм 2, серии 1-2 из 2)
    Рейтинг →
     (голосов: 1, оценка 5/5, голосовать можно 1 раз )

    Другие торренты по теме:

  • Женская версия. Дедушкина внучка (2018) WEB-DLRip (сезон 1, серии 1-4 из 4)
  • Женская версия. Романтик из СССР (2019) SATRip [H.264] (фильм 3, серии 1-2 из 2)
  • Женская версия. Чисто советское убийство (2019) SATRip [H.264] (фильм 4, серии 1-4 из 4)
  • Женская версия. Тайна партийной дачи (2019) SATRip [H.264] (фильм 5, серии 1-4 из 4)


    • Комментарии (0):

      Информация

      Информация

        Посетители, находящиеся в группе Гости, не могут оставлять комментарии в данной новости.

        ↓ Меню




        ↓ Опрос

        Вы добавили сайт в закладки?
        Да
        Нет


        Популярное