.
Авторизация | Регистрация

bitok.xyz

» » На пределе / Aus dem Nichts (2017) DVD5 [Custom] торрент скачать бесплатно


    На пределе / Aus dem Nichts (2017) DVD5 [Custom] торрент скачать бесплатно

    Дата: 27-10-2019, 05:00 | .torrent скачали: 0

    На пределе / Aus dem Nichts (2017) DVD5 [Custom]Производство: Германия, Франция, Италия/The Match Factory, Warner Bros. Pictures, Bombero International
    Жанр: Драма, криминал
    Режиссер: Фатих Акин
    Продюсер: Фатих Акин, Анн-Кристин Хоманн, Нархан Шекерджи-Порст

    Актеры
    Дайан Крюгер, Нуман Аджар, Адам Боусдукс, Денис Москитто, Самия Мюриэль Шанкрен, Торстен Лемке, Рафаэль Сантана, Джем Акин, Ханна Хильсдорф, Anke Opp

    Описание

    Идеальная жизнь немки Кати в один миг превратилась в руины — в результате взрыва погибли её муж и сын. Женщина всевозможными способами пытается заглушить боль утраты, и когда она уже находится на грани отчаяния, полиция приходит к выводу, что взрыв был устроен националистами.

    Возраст: 18+ (зрителям, достигшим 18 лет. запрещено для детей)
    Рейтинг MPAA: R (лицам до 17 лет обязательно присутствие взрослого)

    Продолжительность: 01: 41: 39
    Качество видео: DVD5
    Перевод: Многоголосый профессиональный (лицензия)
    Субтитры: Русские
    Видео: MPEG-2, 720x576@1024x576 (PAL 16: 9), ~5200 Kbps
    Аудио 1: AC3 5.1, 448 Kbps (Русский - многоголосый)
    Аудио 2: AC3 5.1, 448 Kbps (Немецкий - оригинал)Title: Aus dem Nichts (2017) DVD5
    Size: 4.36 Gb ( 4 569 332, 00 KBytes ) - DVD-5
    Enabled regions: 1, 2, 3, 4, 5, 6, 7, 8
    VTS_01 :
    Play Length: 00: 00: 00
    Video: PAL 4: 3 (720x576) VBR
    Audio:
    Not specified (Dolby AC3, 2 ch)
    VTS_02 :
    Play Length: 01: 41: 39
    Video: PAL 16: 9 (720x576) VBR, Auto Letterboxed
    Audio:
    Russian, AC3, 3/2 (L, C, R, SL, SR)+LFE ch, 448 kbps, Delay 0 mSec
    Deutsch, AC3, 3/2 (L, C, R, SL, SR)+LFE ch, 448 kbps, Delay 0 mSec
    Subtitles:
    RussianОбщее
    Полное имя : F: Aus dem Nichts (2017) DVD5VIDEO_TSVTS_02_1.VOB
    Формат : MPEG-PS
    Размер файла : 1024 Мбайт
    Продолжительность : 23 м. 4 с.
    Режим общего битрейта : Переменный
    Общий поток : 6204 Кбит/сек
    Видео
    Идентификатор : 224 (0xE0)
    Формат : MPEG Video
    Версия формата : Version 2
    Профиль формата : Main@Main
    Настройки формата : CustomMatrix/BVOP
    Параметр BVOP формата : Да
    Параметр матрицы формата : Выборочная
    Параметр GOP формата : Variable
    Продолжительность : 23 м. 4 с.
    Вид битрейта : Переменный
    Битрейт : 5184 Кбит/сек
    Максимальный битрейт : 8904 Кбит/сек
    Ширина : 720 пикселей
    Высота : 576 пикселей
    Соотношение сторон : 16: 9
    Частота кадров : 25, 000 кадров/сек
    Стандарт вещания : PAL
    Цветовое пространство : YUV
    Субдискретизация насыщенности : 4: 2: 0
    Битовая глубина : 8 бит
    Тип развёртки : Прогрессивная
    Порядок развёртки : Нижнее поле первое
    Метод сжатия : С потерями
    Бит/(Пиксели*Кадры) : 0.500
    Временной код первого кадра : 00: 00: 00: 00
    Оригинал временного кода : Group of pictures t_head
    GOP, открыто/закрыто : Открыто
    GOP, открыто/закрыто на первом кадре : Закрыто
    Размер потока : 856 Мбайт (84%)
    Аудио #1
    Идентификатор : 189 (0xBD)-128 (0x80)
    Формат : AC-3
    Формат/Информация : Audio Coding 3
    Параметр Endianness формата : Big
    Режим смешивания : DVD-Video
    Продолжительность : 23 м. 4 с.
    Вид битрейта : Постоянный
    Битрейт : 448 Кбит/сек
    Каналы : 6 каналов
    Расположение каналов : Front: L C R, Side: L R, LFE
    Частота : 48, 0 КГц
    Частота кадров : 31, 250 кадров/сек (1536 SPF)
    Битовая глубина : 16 бит
    Метод сжатия : С потерями
    Размер потока : 73, 9 Мбайт (7%)
    ServiceKind/String : Complete Main
    Аудио #2
    Идентификатор : 189 (0xBD)-129 (0x81)
    Формат : AC-3
    Формат/Информация : Audio Coding 3
    Параметр Endianness формата : Big
    Режим смешивания : DVD-Video
    Продолжительность : 23 м. 4 с.
    Вид битрейта : Постоянный
    Битрейт : 448 Кбит/сек
    Каналы : 6 каналов
    Расположение каналов : Front: L C R, Side: L R, LFE
    Частота : 48, 0 КГц
    Частота кадров : 31, 250 кадров/сек (1536 SPF)
    Битовая глубина : 16 бит
    Метод сжатия : С потерями
    Размер потока : 73, 9 Мбайт (7%)
    ServiceKind/String : Complete Main
    Меню


    Онлайн видео На пределе



    На пределе/Aus dem Nichts (2017) DVD5 [Custom]
    Рейтинг →
     (голосов: 1, оценка 5/5, голосовать можно 1 раз )

    Другие торренты по теме:

  • На пределе / Aus dem Nichts (2017) WEB-DLRip [H.264 / 720p-LQ] [MVO, AD]
  • На пределе / Aus dem Nichts (2017) WEB-DLRip
  • На пределе / In the Fade / Aus dem Nichts (2017) WEB-DL [H.264 / 720p-LQ] [MVO]
  • На пределе / Aus dem Nichts (2017) WEB-DL [H.264 / 1080p-LQ] [MVO]
  • На пределе / Aus dem Nichts (2017) BDRip [H.264 / 1080p]
  • На пределе / Aus dem Nichts (2017) BDRip [H.264]
  • На пределе / Aus dem Nichts (2017) DVD9


    • Комментарии (0):

      Информация

      Информация

        Посетители, находящиеся в группе Гости, не могут оставлять комментарии в данной новости.

        ↓ Меню




        ↓ Опрос

        Вы добавили сайт в закладки?
        Да
        Нет


        Популярное