.
Авторизация | Регистрация

bitok.xyz

» » Возможно, само собой / Certo, certissimo, anzi... probabile (1969) DVDRip [H.264] торрент скачать бесплатно


    Возможно, само собой / Certo, certissimo, anzi... probabile (1969) DVDRip [H.264] торрент скачать бесплатно

    Дата: 27-10-2019, 05:00 | .torrent скачали: 1

    Возможно, само собой / Certo, certissimo, anzi... probabile (1969) DVDRip [H.264]Производство: Италия/Clesi Cinematografica, San Marco
    Жанр: Комедия
    Режиссер: Марчелло Фондато
    Продюсер: Сильвио Клементелли

    Актеры
    Клаудия Кардинале, Катрин Спаак, Роберт Хоффманн, Нино Кастельнуово, Джон Филлип Ло, Лино Банфи, Луиджи Барбиери, Мимма Бискарди, Ларс Блох, Клара Колозимо, Дада Галлотти, Альдо Джуффре

    Описание

    Неподражаемая Клаудия Кардинале – в типичной итальянской комедии! Марта уезжает из деревни и находит должность телефонистки на коммутаторе. Она делит свою квартиру с Нандой, маникюршей у скромного парикмахера. Чтобы добиться должности, Марте (Кардинале) приходится доказывать, что она не была замужем, и не собирается этого делать. Нанда (Спаак) со своей стороны стремится к одному – поскорее выйти замуж и все время это оказываются женихи Марты.

    Рейтинг MPAA: PG (рекомендуется присутствие родителей)
    Релиз от: Охрана (NNMCLUB)
    Продолжительность: 01: 56: 02
    Качество видео: DVDRip
    Перевод: Двуголосый профессиональный, Фильм Экспорт
    Субтитры: Отсутствуют
    Видео: AVC/H.264, 720x304, ~1975 Kbps
    Аудио 1: AC3, 2 ch, 192 Kbps, 48.0 kHz – Русский
    Аудио 2: AC3, 2 ch, 192 Kbps, 48.0 kHz – Итальянский
    Общее
    Уникальный идентификатор : 237825989122769386233005249734132117894 (0xB2EB9E91081213EC831F6E5272603186)
    Полное имя : B: DownloadsВозможно, само собой. 1969. NNMCLUB.mkv
    Формат : Matroska
    Версия формата : Version 4/Version 2
    Размер файла : 1, 91 Гбайт
    Продолжительность : 1 ч. 56 м.
    Общий поток : 2361 Кбит/сек
    Дата кодирования : UTC 2019-10-26 01: 34: 11
    Программа кодирования : mkvmerge v7.9.0 (\'Birds\') 64bit
    Библиотека кодирования : libebml v1.3.1 + libmatroska v1.4.2
    Видео
    Идентификатор : 1
    Формат : AVC
    Формат/Информация : Advanced Video Codec
    Профиль формата : High@L4.1
    Настройки формата : CABAC/12 Ref Frames
    Параметр CABAC формата : Да
    Параметр RefFrames формата : 12 кадров
    Идентификатор кодека : V_MPEG4/ISO/AVC
    Продолжительность : 1 ч. 56 м.
    Битрейт : 1975 Кбит/сек
    Ширина : 720 пикселей
    Высота : 304 пикселя
    Соотношение сторон : 2, 35: 1
    Режим частоты кадров : Постоянный
    Частота кадров : 25, 000 кадров/сек
    Цветовое пространство : YUV
    Субдискретизация насыщенности : 4: 2: 0
    Битовая глубина : 8 бит
    Тип развёртки : Прогрессивная
    Бит/(Пиксели*Кадры) : 0.361
    Размер потока : 1, 60 Гбайт (84%)
    Заголовок : Certo, certissimo, anzi... probabile
    Библиотека кодирования : x264 core 146 r2538 121396c
    Настройки программы : cabac=1/ref=12/deblock=1: -1: -1/analyse=0x3: 0x113/me=umh/subme=10/psy=1/psy_rd=1.00: 0.10/mixed_ref=1/me_range=32/chroma_me=1/trellis=2/8x8dct=1/cqm=0/deadzone=21, 11/fast_pskip=0/chroma_qp_offset=-3/threads=6/lookahead_threads=1/sliced_threads=0/nr=0/decimate=0/interlaced=0/bluray_compat=0/constrained_intra=0/bframes=7/b_pyramid=2/b_adapt=2/b_bias=0/direct=3/weightb=1/open_gop=0/weightp=2/keyint=250/keyint_min=25/scenecut=40/intra_refresh=0/rc_lookahead=60/rc=2pass/mbtree=1/bitrate=1975/ratetol=1.0/qcomp=0.60/qpmin=0/qpmax=69/qpstep=4/cplxblur=20.0/qblur=0.5/vbv_maxrate=14000/vbv_bufsize=14000/nal_hrd=none/filler=0/ip_ratio=1.40/aq=1: 1.00
    Язык : Italian
    Default : Да
    Forced : Нет
    Аудио #1
    Идентификатор : 2
    Формат : AC-3
    Формат/Информация : Audio Coding 3
    Идентификатор кодека : A_AC3
    Продолжительность : 1 ч. 56 м.
    Вид битрейта : Постоянный
    Битрейт : 192 Кбит/сек
    Каналы : 2 канала
    Расположение каналов : Front: L R
    Частота : 48, 0 КГц
    Частота кадров : 31, 250 кадров/сек (1536 SPF)
    Битовая глубина : 16 бит
    Метод сжатия : С потерями
    Размер потока : 159 Мбайт (8%)
    Заголовок : Двухголосый закадровый, Фильм Экспорт
    Язык : Russian
    ServiceKind/String : Complete Main
    Default : Да
    Forced : Нет
    Аудио #2
    Идентификатор : 3
    Формат : AC-3
    Формат/Информация : Audio Coding 3
    Идентификатор кодека : A_AC3
    Продолжительность : 1 ч. 56 м.
    Вид битрейта : Постоянный
    Битрейт : 192 Кбит/сек
    Каналы : 2 канала
    Расположение каналов : Front: L R
    Частота : 48, 0 КГц
    Частота кадров : 31, 250 кадров/сек (1536 SPF)
    Битовая глубина : 16 бит
    Метод сжатия : С потерями
    Размер потока : 159 Мбайт (8%)
    Заголовок : Итальянский
    Язык : Italian
    ServiceKind/String : Complete Main
    Default : Нет
    Forced : Нет

    Скриншоты для ознакомления




    Все одноименные релизы в Клубе
    Время раздачи: с 13: 00 до 01: 00 МСК, выходные круглосуточно (до появления первых 3-5 скачавших)

    Онлайн видео Возможно, само собой



    Возможно, само собой/Certo, certissimo, anzi... probabile (1969) DVDRip [H.264]
    Рейтинг →
     (голосов: 1, оценка 5/5, голосовать можно 1 раз )

    Другие торренты по теме:

  • И.В.Ткаченко | Бизнес с нуля и без вложений. Это возможно! (2015) [PDF] скачать через торрент бесплатно
  • Олег Зайончковский | Счастье возможно (2011) [MP3]
  • Антонина Шмак | Методы распознавания фертильности или когда возможно зачатие (2003) [PDF, DJVU]
  • Франческо Антонио Маттей | Неаполитанское Фехтование с господствующим названием Невозможное Возможно (2017) [PDF]
  • Уильям Макрейвен | Заправляй кровать. 10 простых правил, которые могут изменить твою жизнь и, возможно, весь мир (2018) [FB2]
  • Томас Эриксон | Кругом одни идиоты. Если вам так кажется, возможно, вам не кажется [4-е издание] (2018) [PDF, FB2, RTF]
  • Иран: все запрещено, все возможно / Iran: Everything is Forbidden, Anything Possible (2018) WEBRip [H.264 / 720p-LQ]


    • Комментарии (0):

      Информация

      Информация

        Посетители, находящиеся в группе Гости, не могут оставлять комментарии в данной новости.

        ↓ Меню




        ↓ Опрос

        Вы добавили сайт в закладки?
        Да
        Нет


        Популярное