.
Авторизация | Регистрация

bitok.xyz

» » Саахо / Saaho (2019) WEBRip торрент скачать бесплатно


    Саахо / Saaho (2019) WEBRip торрент скачать бесплатно

    Дата: 27-10-2019, 05:00 | .torrent скачали: 0

    Саахо / Saaho (2019) WEBRipПроизводство: Индия, ODU Movies, T-Series Films, UV Creations
    Жанр: боевик, триллер, криминал
    Режиссер: Суджитх
    Продюсер: В. Вамси Кришна Редди, Викрам Редди, Прамод Уппалапати

    Актеры
    Прабхас, Шраддха Капур, Джеки Шрофф, Нил Нитин Мукеш, Веннела Кишор, Мурли Шарма, Арун Виджай, Пракаш Белавади, Эвелин Шарма, Мандира Беди

    Описание

    События в фильме Саахо 2019 разворачиваются вокруг опытного индийского полицейского, который уже давно привык оказываться в самых непредсказуемых и порой чрезмерно опасных ситуациях. В целом, опасность его преследует повсюду, даже тогда, когда заканчивается его рабочий день, и мужчина отправляется домой. Но, несмотря на подобный напряженный и неспокойный жизненный распорядок, полицейский никогда не жалел о выборе своей непростой профессии...

    Продолжительность: 02: 49: 46
    Качество видео: WEBRip
    Перевод: Многоголосый любительский (Студия OnisFilms)
    Субтитры: русские, неотключаемые на песни
    Видео: Xvid, 720x302, ~1400 Kbps
    Аудио: AAC, 2 ch, 208 Kbps - русский
    Общее
    Полное имя : I: Saaho.2019.WEBRip.avi
    Формат : AVI
    Формат/Информация : Audio Video Interleave
    Профиль формата : OpenDML
    Размер файла : 1, 92 Гбайт
    Продолжительность : 2 ч. 49 м.
    Общий поток : 1622 Кбит/сек
    Название фильма : Saaho 2019 720p AMZN WEBRip Hindi Tamil x264 ESubs - LOKiHD - Telly
    Программа кодирования : Lavf57.71.100
    Видео
    Идентификатор : 0
    Формат : MPEG-4 Visual
    Профиль формата : Advanced Simple@L5
    Параметр BVOP формата : Нет
    Параметр QPel формата : Нет
    Параметр GMC формата : Без точки перехода
    Параметр матрицы формата : Default (H.263)
    Идентификатор кодека : XVID
    Идентификатор кодека/Подсказка : XviD
    Продолжительность : 2 ч. 49 м.
    Битрейт : 1400 Кбит/сек
    Ширина : 720 пикселей
    Высота : 302 пикселя
    Соотношение сторон : 2, 40: 1
    Частота кадров : 24, 000 кадра/сек
    Цветовое пространство : YUV
    Субдискретизация насыщенности : 4: 2: 0
    Битовая глубина : 8 бит
    Тип развёртки : Прогрессивная
    Метод сжатия : С потерями
    Бит/(Пиксели*Кадры) : 0.268
    Размер потока : 1, 66 Гбайт (86%)
    Библиотека кодирования : XviD 67
    Аудио
    Идентификатор : 1
    Формат : AAC
    Формат/Информация : Advanced Audio Codec
    Версия формата : Version 4
    Профиль формата : LC
    Режим смешивания : ADTS
    Идентификатор кодека : FF
    Продолжительность : 2 ч. 49 м.
    Битрейт : 208 Кбит/сек
    Каналы : 2 канала
    Расположение каналов : Front: L R
    Частота : 48, 0 КГц
    Частота кадров : 46, 875 кадров/сек (1024 spf)
    Метод сжатия : С потерями
    Размер потока : 253 Мбайт (13%)
    Выравнивание : Соединение по промежуткам
    Продолжительность промежутка : 21 мс. (0, 51 видеокадр)

    Скриншоты для ознакомления



    Все одноименные релизы в Клубе
    Время раздачи: Пн-Пт с 18: 00 до 22: 00, Вс с 09: 00 до 22: 30 (до появления первых 3-5 скачавших)

    Онлайн видео Саахо



    Саахо/Saaho (2019) WEBRip
    Рейтинг →
     (голосов: 1, оценка 3/5, голосовать можно 1 раз )

    Другие торренты по теме:



      Комментарии (0):

      Информация

      Информация

        Посетители, находящиеся в группе Гости, не могут оставлять комментарии в данной новости.

        ↓ Меню




        ↓ Опрос

        Вы добавили сайт в закладки?
        Да
        Нет


        Популярное