.
Авторизация | Регистрация

bitok.xyz

» » Вамп / Vamp (1986) BDRip [H.264] торрент скачать бесплатно


    Вамп / Vamp (1986) BDRip [H.264] торрент скачать бесплатно

    Дата: 27-10-2019, 05:00 | .torrent скачали: 0

    Вамп / Vamp (1986) BDRip [H.264]Производство: США, Balcor Film Investors, Planet Productions
    Жанр: ужасы, фэнтези, комедия
    Режиссер: Ричард Уэнк
    Продюсер: Дональд П. Боркерс, Сьюзэн Гелб

    Актеры
    Крис Мейкпис, Сэнди Бэрон, Роберт Раслер, Диди Пфайффер, Гедде Ватанабе, Грэйс Джонс, Билли Драго, Джим Бойл

    Описание

    Двое друзей Кит и Эй Джей вызвались привезти стриптизершу на студенческую вечеринку. В ночном клубе После заката у них разбегаются глаза от изобилия подходящих кандидатур. Они не заметили ничего необычного, пока владелица заведения — соблазнительная Катрина не обнажила… свои остренькие зубки.

    Возраст: 16+ (зрителям, достигшим 16 лет)
    Рейтинг MPAA: R (лицам до 17 лет обязательно присутствие взрослого)
    Релиз от: GoldDust
    Продолжительность: 01: 33: 59
    Качество видео: BDRip
    Перевод: Многоголосый профессиональный
    Субтитры: English
    Видео: AVC/H.264, 1280x692, 9100 Кбитc
    Аудио 1: DTS; 1ch; 384 Kbps (Russian) AVO Сергей Визгунов
    Аудио 2: AC3; 2ch; 192 Kbps (Russian) DVO
    Аудио 3: AC3; 2ch; 192 Kbps (Russian) VO Стрельцов Роман/Диктор DFV
    Аудио 4: AC3; 1ch; 224 Kbps (English)
    Общее
    Уникальный идентификатор : 301284804540180963942614395100731128369 (0xE2A957BA38F21A7025EC8DA4BCA9BA31)
    Полное имя : Vamp.1986.BDRip.720p.mkv
    Формат : Matroska
    Версия формата : Version 4
    Размер файла : 6, 62 Гбайт
    Продолжительность : 1 ч. 33 м.
    Общий поток : 10, 1 Мбит/сек
    Название фильма : Vamp.1986
    Дата кодирования : UTC 2018-11-26 10: 32: 31
    Программа кодирования : mkvmerge v25.0.0 (\'Prog Noir\') 64-bit
    Библиотека кодирования : libebml v1.3.6 + libmatroska v1.4.9
    Видео
    Идентификатор : 1
    Формат : AVC
    Формат/Информация : Advanced Video Codec
    Профиль формата : High@L4.1
    Настройки формата : CABAC/9 Ref Frames
    Параметр CABAC формата : Да
    Параметр RefFrames формата : 9 кадров
    Идентификатор кодека : V_MPEG4/ISO/AVC
    Продолжительность : 1 ч. 33 м.
    Битрейт : 9100 Кбит/сек
    Ширина : 1280 пикселей
    Высота : 692 пикселя
    Соотношение сторон : 1, 85: 1
    Режим частоты кадров : Постоянный
    Частота кадров : 23, 976 (24000/1001) кадра/сек
    Цветовое пространство : YUV
    Субдискретизация насыщенности : 4: 2: 0
    Битовая глубина : 8 бит
    Тип развёртки : Прогрессивная
    Бит/(Пиксели*Кадры) : 0.428
    Размер потока : 5, 97 Гбайт (90%)
    Заголовок : Vamp.1986.UK.BDRip.720p.x264-MM
    Библиотека кодирования : x264 core 157 r2935 545de2f
    Настройки программы : cabac=1/ref=9/deblock=1: -3: -3/analyse=0x3: 0x133/me=umh/subme=11/psy=1/psy_rd=1.01: 0.00/mixed_ref=1/me_range=48/chroma_me=1/trellis=2/8x8dct=1/cqm=0/deadzone=21, 11/fast_pskip=0/chroma_qp_offset=-2/threads=12/lookahead_threads=3/sliced_threads=0/nr=0/decimate=0/interlaced=0/bluray_compat=0/constrained_intra=0/bframes=12/b_pyramid=2/b_adapt=2/b_bias=0/direct=3/weightb=1/open_gop=1/weightp=2/keyint=250/keyint_min=23/scenecut=40/intra_refresh=0/rc_lookahead=60/rc=2pass/mbtree=0/bitrate=9100/ratetol=1.0/qcomp=0.60/qpmin=0/qpmax=69/qpstep=4/cplxblur=20.0/qblur=0.5/vbv_maxrate=50000/vbv_bufsize=62500/nal_hrd=none/filler=0/ip_ratio=1.40/pb_ratio=1.30/aq=1: 1.10
    Язык : English
    Default : Да
    Forced : Нет
    Аудио #1
    Идентификатор : 2
    Формат : DTS
    Формат/Информация : Digital Theater Systems
    Идентификатор кодека : A_DTS
    Продолжительность : 1 ч. 33 м.
    Вид битрейта : Постоянный
    Битрейт : 384 Кбит/сек
    Каналы : 1 канал
    ChannelLayout : C
    Частота : 48, 0 КГц
    Частота кадров : 93, 750 кадра/сек (512 SPF)
    Битовая глубина : 24 бит
    Метод сжатия : С потерями
    Размер потока : 258 Мбайт (4%)
    Заголовок : AVO Сергей Визгунов
    Язык : Russian
    Default : Да
    Forced : Нет
    Аудио #2
    Идентификатор : 3
    Формат : AC-3
    Формат/Информация : Audio Coding 3
    Коммерческое название : Dolby Digital
    Идентификатор кодека : A_AC3
    Продолжительность : 1 ч. 33 м.
    Вид битрейта : Постоянный
    Битрейт : 192 Кбит/сек
    Каналы : 2 канала
    ChannelLayout : L R
    Частота : 48, 0 КГц
    Частота кадров : 31, 250 кадров/сек (1536 SPF)
    Битовая глубина : 16 бит
    Метод сжатия : С потерями
    Размер потока : 129 Мбайт (2%)
    Заголовок : DVO
    Язык : Russian
    ServiceKind/String : Complete Main
    Default : Нет
    Forced : Нет
    Аудио #3
    Идентификатор : 4
    Формат : AC-3
    Формат/Информация : Audio Coding 3
    Коммерческое название : Dolby Digital
    Идентификатор кодека : A_AC3
    Продолжительность : 1 ч. 33 м.
    Вид битрейта : Постоянный
    Битрейт : 192 Кбит/сек
    Каналы : 2 канала
    ChannelLayout : L R
    Частота : 48, 0 КГц
    Частота кадров : 31, 250 кадров/сек (1536 SPF)
    Битовая глубина : 16 бит
    Метод сжатия : С потерями
    Размер потока : 129 Мбайт (2%)
    Заголовок : VO Стрельцов Роман/Диктор DFV
    Язык : Russian
    ServiceKind/String : Complete Main
    Default : Нет
    Forced : Нет
    Аудио #4
    Идентификатор : 5
    Формат : AC-3
    Формат/Информация : Audio Coding 3
    Коммерческое название : Dolby Digital
    Идентификатор кодека : A_AC3
    Продолжительность : 1 ч. 33 м.
    Вид битрейта : Постоянный
    Битрейт : 224 Кбит/сек
    Каналы : 1 канал
    ChannelLayout : C
    Частота : 48, 0 КГц
    Частота кадров : 31, 250 кадров/сек (1536 SPF)
    Битовая глубина : 16 бит
    Метод сжатия : С потерями
    Размер потока : 151 Мбайт (2%)
    Заголовок : Original
    Язык : English
    ServiceKind/String : Complete Main
    Default : Нет
    Forced : Нет
    Текст
    Идентификатор : 6
    Формат : UTF-8
    Идентификатор кодека : S_TEXT/UTF8
    Идентификатор кодека/Информация : UTF-8 Plain Text
    Продолжительность : 1 ч. 27 м.
    Битрейт : 34 бит/сек
    ElementCount : 600
    Размер потока : 22, 2 Кбайт (0%)
    Заголовок : SRT
    Язык : English
    Default : Нет
    Forced : Нет
    Меню
    00: 00: 00.000 : en: 00: 00: 00.000
    00: 02: 43.622 : en: 00: 02: 43.622
    00: 09: 17.682 : en: 00: 09: 17.682
    00: 17: 45.940 : en: 00: 17: 45.940
    00: 26: 09.485 : en: 00: 26: 09.485
    00: 33: 06.818 : en: 00: 33: 06.818
    00: 38: 16.669 : en: 00: 38: 16.669
    00: 45: 53.167 : en: 00: 45: 53.167
    00: 51: 43.600 : en: 00: 51: 43.600
    00: 57: 47.172 : en: 00: 57: 47.172
    01: 05: 15.912 : en: 01: 05: 15.912
    01: 11: 47.678 : en: 01: 11: 47.678
    01: 16: 42.807 : en: 01: 16: 42.807
    01: 22: 04.253 : en: 01: 22: 04.253
    01: 27: 14.396 : en: 01: 27: 14.396
    01: 30: 00.812 : en: 01: 30: 00.812

    Скриншоты для ознакомления



    Все одноименные релизы в Клубе
    Время раздачи: 24/7 (до появления первых 3-5 скачавших)

    Онлайн видео Вамп



    Вамп/Vamp (1986) BDRip [H.264]
    Рейтинг →
     (голосов: 1, оценка 4/5, голосовать можно 1 раз )

    Другие торренты по теме:

  • Дарья Донцова | Штамп на сердце женщины-вамп (2016) [FB2]
  • Лана Ежова | ВАМП. Практикум по целительству (2016) [FB2]


    • Комментарии (0):

      Информация

      Информация

        Посетители, находящиеся в группе Гости, не могут оставлять комментарии в данной новости.

        ↓ Меню




        ↓ Опрос

        Вы добавили сайт в закладки?
        Да
        Нет


        Популярное