.
Авторизация | Регистрация

bitok.xyz

» » Агент-смутьян / Agent trouble (1987) DVDRip [Н.264] торрент скачать бесплатно


    Агент-смутьян / Agent trouble (1987) DVDRip [Н.264] торрент скачать бесплатно

    Дата: 27-10-2019, 05:00 | .torrent скачали: 0

    Агент-смутьян / Agent trouble (1987) DVDRip [Н.264]Производство: Франция/AFC, Canal+ fr, France 3 Cinema, Koala Films, Soficas Investimages
    Жанр: Триллер
    Режиссер: Жан-Пьер Моки

    Актеры
    Катрин Денёв, Ришар Боринже, Том Новамбр, Доминик Лаванан, Кристин Скотт Томас, Элена Мансон, Эрв Почон, Максим Леру, Сильви Жоли, Пьер Ардити и др.

    Описание

    Аманда Вебер пытается выяснить, как был убит ее племянник. За ней неотступно следит правительственный агент, которому дано распоряжение - убить любого, кто попытается расследовать это дело.

    Возраст: 16+ (зрителям, достигшим 16 лет)
    Продолжительность: 01: 26: 09
    Качество видео: DVDRip (AVC)
    Перевод: Многоголосый профессиональный
    Субтитры: отсутствуют
    Видео: AVC/H.264, 720x432, ~1800 kbps
    Аудио 1: AC3, 2 ch, 192 kbps - Русский MVO
    Аудио 2: AC3, 2 ch, 192 kbps - Французский (Оригинал)
    Общее
    Уникальный идентификатор : 229328932993890647268479817259063790497 (0xAC87255ACC82B457AF680FBCC8A94BA1)
    Полное имя : I: Ришар БоренжеАгент-смутьянАгент-смутьян. 1987.mkv
    Формат : Matroska
    Версия формата : Version 4/Version 2
    Размер файла : 1, 32 Гбайт
    Продолжительность : 1 ч. 26 м.
    Общий поток : 2186 Кбит/сек
    Название фильма : Release for Topmost
    Дата кодирования : UTC 2019-10-25 17: 37: 31
    Программа кодирования : mkvmerge v6.2.0 (\'Promised Land\') built on Apr 28 2013 12: 22: 01
    Библиотека кодирования : libebml v1.3.0 + libmatroska v1.4.0
    Attachment : Yes
    Видео
    Идентификатор : 1
    Формат : AVC
    Формат/Информация : Advanced Video Codec
    Профиль формата : High@L4.1
    Параметр CABAC формата : Да
    Параметр ReFrames формата : 12 кадров
    Идентификатор кодека : V_MPEG4/ISO/AVC
    Продолжительность : 1 ч. 26 м.
    Битрейт : 1800 Кбит/сек
    Ширина : 720 пикселей
    Высота : 432 пикселя
    Соотношение сторон : 1, 667
    Режим частоты кадров : Постоянный
    Частота кадров : 25, 000 кадров/сек
    Цветовое пространство : YUV
    Субдискретизация насыщенности : 4: 2: 0
    Битовая глубина : 8 бит
    Тип развёртки : Прогрессивная
    Бит/(Пиксели*Кадры) : 0.231
    Размер потока : 1, 06 Гбайт (80%)
    Заголовок : Агент-смутьян. 1987 /Release for Topmost/
    Библиотека кодирования : x264 core 146 r2538 121396c
    Настройки программы : cabac=1/ref=12/deblock=1: -3: -3/analyse=0x3: 0x113/me=umh/subme=11/psy=1/psy_rd=1.00: 0.15/mixed_ref=1/me_range=32/chroma_me=1/trellis=2/8x8dct=1/cqm=0/deadzone=21, 11/fast_pskip=0/chroma_qp_offset=-3/threads=12/lookahead_threads=2/sliced_threads=0/nr=0/decimate=0/interlaced=0/bluray_compat=0/constrained_intra=0/bframes=8/b_pyramid=2/b_adapt=2/b_bias=0/direct=1/weightb=1/open_gop=0/weightp=2/keyint=240/keyint_min=23/scenecut=40/intra_refresh=0/rc_lookahead=40/rc=2pass/mbtree=0/bitrate=1800/ratetol=1.0/qcomp=0.60/qpmin=0/qpmax=69/qpstep=4/cplxblur=20.0/qblur=0.5/vbv_maxrate=14000/vbv_bufsize=14000/nal_hrd=none/filler=0/ip_ratio=1.40/pb_ratio=1.30/aq=1: 0.90
    Язык : French
    Default : Да
    Forced : Нет
    Аудио #1
    Идентификатор : 2
    Формат : AC-3
    Формат/Информация : Audio Coding 3
    Расширение режима : CM (complete main)
    Параметр Endianness формата : Big
    Идентификатор кодека : A_AC3
    Продолжительность : 1 ч. 26 м.
    Вид битрейта : Постоянный
    Битрейт : 192 Кбит/сек
    Каналы : 2 канала
    Расположение каналов : Front: L R
    Частота : 48, 0 КГц
    Битовая глубина : 16 бит
    Метод сжатия : С потерями
    Размер потока : 118 Мбайт (9%)
    Язык : Russian
    Default : Да
    Forced : Нет
    Аудио #2
    Идентификатор : 3
    Формат : AC-3
    Формат/Информация : Audio Coding 3
    Расширение режима : CM (complete main)
    Параметр Endianness формата : Big
    Идентификатор кодека : A_AC3
    Продолжительность : 1 ч. 26 м.
    Вид битрейта : Постоянный
    Битрейт : 192 Кбит/сек
    Каналы : 2 канала
    Расположение каналов : Front: L R
    Частота : 48, 0 КГц
    Битовая глубина : 16 бит
    Метод сжатия : С потерями
    Размер потока : 118 Мбайт (9%)
    Язык : French
    Default : Нет
    Forced : Нет

    Скриншоты для ознакомления




    Все одноименные релизы в Клубе
    Время раздачи: 24/7 до 5 скачавших (до появления первых 3-5 скачавших)

    Онлайн видео Агент-смутьян



    Агент-смутьян/Agent trouble (1987) DVDRip [Н.264]
    Рейтинг →
     (голосов: 1, оценка 4/5, голосовать можно 1 раз )

    Другие торренты по теме:



      Комментарии (0):

      Информация

      Информация

        Посетители, находящиеся в группе Гости, не могут оставлять комментарии в данной новости.

        ↓ Меню




        ↓ Опрос

        Вы добавили сайт в закладки?
        Да
        Нет


        Популярное