.
Авторизация | Регистрация

bitok.xyz

» » След лисицы на камнях (2019) WEB-DL [H.264 / 1080p-LQ] (сезон 1, серии 1-4 из 4) торрент скачать бесплатно


    След лисицы на камнях (2019) WEB-DL [H.264 / 1080p-LQ] (сезон 1, серии 1-4 из 4) торрент скачать бесплатно

    Дата: 27-10-2019, 05:00 | .torrent скачали: 0

    След лисицы на камнях (2019) WEB-DL [H.264 / 1080p-LQ] (сезон 1, серии 1-4 из 4)Производство: Россия/Приор Продакшн
    Жанр: детектив
    Режиссер: Антон Павлючик

    Актеры
    Евгений Пронин, Алексей Вакулов, Светлана Смирнова-Кацагаджиева, Татьяна Казючиц, Евгений Славский, Евгений Иванов, Илья Савельев, Андрей Пынзару, Марина Старых, Евгений Филатов и др.

    Описание

    Цикл Приключения Бабкина и Илюшина по романам Елены Михалковой.
    Частных детективов Макара Илюшина и Сергея Бабкина нанимает Андрей Калашников — настоящий подвижник, который вложил все свое состояние и всю душу в полуразрушенный старинный терем в деревне Камышовка. После чего к нему явилась Вера Бакшаева, сестра бывшей владелицы, и заявила, что терем на самом деле принадлежал ей. Калашников потерял сознание, а очнувшись, увидел рядом труп Веры. В ужасе он закопал тело, но потом раскаялся и пришел в полицию с повинной, но Бакшаеву так и не нашли, ни живую, ни мертвую...

    Дата российской премьеры: 27 октября 2019 (ТВЦ)
    Релиз от: ExKinoRay
    Продолжительность: ~00: 46: 00 серия
    Качество видео: WEB-DL
    Видео: AVC/H.264, 1920x1080 (16: 9), ~4745 Kbps
    Аудио: AC3, 2 ch, 192 Kbps
    Общее
    Уникальный идентификатор : 230513582291365453130423063588412710107 (0xAD6B4D1312DC6DA38EF57A774FA5DCDB)
    Полное имя : G: Sled.lisici.na.kamniah.2019.WEB-DL.(1080p).ExKinoRaySled.lisici.na.kamniah.E01.2019.WEB-DL.(1080p).ExKinoRay.mkv
    Формат : Matroska
    Версия формата : Version 4
    Размер файла : 1, 63 Гбайт
    Продолжительность : 46 м. 27 с.
    Общий поток : 5038 Кбит/сек
    Дата кодирования : UTC 2019-10-26 17: 16: 22
    Программа кодирования : mkvmerge v6.9.1 (\'Blue Panther\') 64bit built on Apr 18 2014 18: 23: 38
    Библиотека кодирования : libebml v1.3.0 + libmatroska v1.4.1
    Видео
    Идентификатор : 1
    Формат : AVC
    Формат/Информация : Advanced Video Codec
    Профиль формата : High@L4
    Настройки формата : CABAC/4 Ref Frames
    Параметр CABAC формата : Да
    Параметр RefFrames формата : 4 кадра
    Идентификатор кодека : V_MPEG4/ISO/AVC
    Продолжительность : 46 м. 27 с.
    Битрейт : 4746 Кбит/сек
    Ширина : 1920 пикселей
    Высота : 1080 пикселей
    Соотношение сторон : 16: 9
    Режим частоты кадров : Постоянный
    Частота кадров : 30, 000 кадров/сек
    Цветовое пространство : YUV
    Субдискретизация насыщенности : 4: 2: 0
    Битовая глубина : 8 бит
    Тип развёртки : Прогрессивная
    Бит/(Пиксели*Кадры) : 0.076
    Размер потока : 1, 54 Гбайт (94%)
    Default : Да
    Forced : Нет
    Аудио
    Идентификатор : 2
    Формат : AC-3
    Формат/Информация : Audio Coding 3
    Коммерческое название : Dolby Digital
    Идентификатор кодека : A_AC3
    Продолжительность : 46 м. 27 с.
    Вид битрейта : Постоянный
    Битрейт : 192 Кбит/сек
    Каналы : 2 канала
    ChannelLayout : L R
    Частота : 48, 0 КГц
    Частота кадров : 31, 250 кадров/сек (1536 SPF)
    Метод сжатия : С потерями
    Размер потока : 63, 8 Мбайт (4%)
    Язык : Russian
    ServiceKind/String : Complete Main
    Default : Да
    Forced : Нет

    Скриншоты для ознакомления



    Все одноименные релизы в Клубе
    Время раздачи: 24/7 (мультитрекерная раздача) (до появления первых 3-5 скачавших)

    Онлайн видео След лисицы на камнях (2019) WEB-DL [H.264



    След лисицы на камнях (2019) WEB-DL [H.264/1080p-LQ] (сезон 1, серии 1-4 из 4)
    Рейтинг →
     (голосов: 1, оценка 4/5, голосовать можно 1 раз )

    Другие торренты по теме:

  • Елена Михалкова | След лисицы на камнях (2018) [FB2]
  • Елена Михалкова | След лисицы на камнях (2018) [MP3]
  • След лисицы на камнях (2019) WEB-DLRip (сезон 1, серии 1-4 из 4)
  • След лисицы на камнях (2019) WEBRip [H.264] (серии 1-4 из 4)


    • Комментарии (0):

      Информация

      Информация

        Посетители, находящиеся в группе Гости, не могут оставлять комментарии в данной новости.

        ↓ Меню




        ↓ Опрос

        Вы добавили сайт в закладки?
        Да
        Нет


        Популярное