.
Авторизация | Регистрация

bitok.xyz

» » Условный мент (2019) WEB-DL [H.264 / 1080p-LQ] (сезон 1, серии 1-8 из 24) (обновляемая) торрент скачать бесплатно


    Условный мент (2019) WEB-DL [H.264 / 1080p-LQ] (сезон 1, серии 1-8 из 24) (обновляемая) торрент скачать бесплатно

    Дата: 27-10-2019, 05:00 | .torrent скачали: 1

    Условный мент (2019) WEB-DL [H.264 / 1080p-LQ] (сезон 1, серии 1-8 из 24) (обновляемая)Производство: Россия/Триикс Медиа
    Жанр: детектив
    Режиссер: Андрей Коршунов

    Актеры
    Денис Рожков, Анастасия Тюнина, Алексей Нилов, Егор Бакулин, Сергей Кошонин, Алексей Фокин, Кирилл Балобан, Ольга Богданова, Любовь Макеева, Александра Сыдорук и др.

    Описание

    Одновременно в Петербург приезжают бывший опер Дмитрий Рыжов, отсидевший в колонии за превышение полномочий, и капитан полиции Арина Гордеева. Рыжов устраивается работать в Жилкомсервис, чтобы зарабатывать деньги, ездить на своей аварийной машине по родному району и больше не иметь ничего общего с полицией. Гордеева становится участковым этого же района. В нём всем заправляет бизнесмен Вениамин Воронов — он же Веня Ворон. Под его покровительством практически все злачные точки и многие предприятия, которые за долю немалую прикрывает местный участковый капитан Тельцов...

    Возраст: 16+ (зрителям, достигшим 16 лет)
    Дата российской премьеры: 14 октября 2019
    Продолжительность: ~00: 40: 00 серия
    Качество видео: WEB-DL
    Видео: AVC/H.264, 1920x1080 (16: 9), ~3275 Kbps
    Аудио: AC3, 2 ch, 192 Kbps
    Общее
    Уникальный идентификатор : 194740472714193986026155108175171922563 (0x9281A6996A71273D1DFF6C5E2849AA83)
    Полное имя : D: Условный мент (2019)Условный мент. 01 серия. Возвращение.mkv
    Формат : Matroska
    Версия формата : Version 4
    Размер файла : 1016 Мбайт
    Продолжительность : 40 м. 9 с.
    Общий поток : 3537 Кбит/сек
    Программа кодирования : Lavf57.71.100
    Библиотека кодирования : Lavf57.71.100
    ErrorDetectionType : Per level 1
    Видео
    Идентификатор : 1
    Формат : AVC
    Формат/Информация : Advanced Video Codec
    Профиль формата : High@L4
    Настройки формата : CABAC/3 Ref Frames
    Параметр CABAC формата : Да
    Параметр RefFrames формата : 3 кадра
    Идентификатор кодека : V_MPEG4/ISO/AVC
    Продолжительность : 40 м. 9 с.
    Битрейт : 3274 Кбит/сек
    Ширина : 1920 пикселей
    Высота : 1080 пикселей
    Соотношение сторон : 16: 9
    Режим частоты кадров : Постоянный
    Частота кадров : 25, 000 кадров/сек
    Цветовое пространство : YUV
    Субдискретизация насыщенности : 4: 2: 0
    Битовая глубина : 8 бит
    Тип развёртки : Прогрессивная
    Бит/(Пиксели*Кадры) : 0.063
    Размер потока : 940 Мбайт (93%)
    Default : Да
    Forced : Нет
    Цветовой диапазон : Limited
    Основные цвета : BT.709
    Характеристики трансфера : BT.709
    Коэффициенты матрицы : BT.709
    Аудио
    Идентификатор : 2
    Формат : AC-3
    Формат/Информация : Audio Coding 3
    Коммерческое название : Dolby Digital
    Идентификатор кодека : A_AC3
    Продолжительность : 40 м. 9 с.
    Вид битрейта : Постоянный
    Битрейт : 192 Кбит/сек
    Каналы : 2 канала
    ChannelLayout : L R
    Частота : 48, 0 КГц
    Частота кадров : 31, 250 кадров/сек (1536 SPF)
    Битовая глубина : 32 бит
    Метод сжатия : С потерями
    Размер потока : 55, 1 Мбайт (5%)
    ServiceKind/String : Complete Main
    Default : Да
    Forced : Нет

    Скриншоты для ознакомления



    Все одноименные релизы в Клубе
    Время раздачи: 24/7 (круглосуточно) (до появления первых 3-5 скачавших)

    Онлайн видео Условный мент (2019) WEB-DL [H.264



    Условный мент (2019) WEB-DL [H.264/1080p-LQ] (сезон 1, серии 1-8 из 24) (обновляемая)
    Рейтинг →
     (голосов: 1, оценка 4/5, голосовать можно 1 раз )

    Другие торренты по теме:

  • Условный мент (2019) SATRip [H.264] (сезон 1, серии 1-4 из 24) (обновляемая)
  • Условный мент (2019) WEB-DLRip (сезон 1, серии 1-5 из 24) (обновляемая)


    • Комментарии (0):

      Информация

      Информация

        Посетители, находящиеся в группе Гости, не могут оставлять комментарии в данной новости.

        ↓ Меню




        ↓ Опрос

        Вы добавили сайт в закладки?
        Да
        Нет


        Популярное