.
Авторизация | Регистрация

bitok.xyz

» » Канцелярская крыса (2019) WEB-DLRip [H.264] (сезон 2, серии 1-20 из 20) торрент скачать бесплатно


    Канцелярская крыса (2019) WEB-DLRip [H.264] (сезон 2, серии 1-20 из 20) торрент скачать бесплатно

    Дата: 27-10-2019, 05:00 | .torrent скачали: 1

    Канцелярская крыса (2019) WEB-DLRip [H.264] (сезон 2, серии 1-20 из 20)Производство: Россия | Триикс Медиа
    Жанр: детектив, драма
    Режиссер: Иван Глубоков, Алан Дзоциев

    Актеры
    Константин Стрельников, Алексей Кравченко, Ингрид Олеринская, Елена Полякова, Алексей Нилов, Вадим Сквирский, Сергей Кошонин, Валерий Гришко, Роман Жилкин, Андрей Павловец и др.

    Описание

    С того момента, как Вершинин поспособствовал аресту Медушевского, прошло несколько месяцев. Полковник почти восстановился после ранения, и ему пора возвращаться к работе на должность начальника полиции в Портовом. Но едва он успевает выйти из больницы, как в городе происходит покушение на Юру Никитина и Глеба Борисова. После смерти Никитина-старшего его сын решил, что он в состоянии продолжить дело отца, и это делает его помехой многим, претендующим на владение портом. Вершинин собирает команду из надёжных людей...

    Возраст: 16+ (зрителям, достигшим 16 лет)
    Продолжительность: ~00: 48: 00 серия
    Качество видео: WEB-DLRip
    Видео: AVC/H.264, 1024х576 (16: 9), ~2000 Kbps
    Аудио: AC3, 2 ch, 192 Kbps
    General
    Unique ID : 198223245764789765878209732892119663965 (0x95206891701025B588B756D1769A055D)
    Complete name : D: Канцелярская_крыса_S02_2019_WEB-DLRip_AVCКанцелярская_крыса_S02_2019_WEB-DLRip_AVC_01.mkv
    Format : Matroska
    Format version : Version 2
    File size : 750 MiB
    Duration : 47 min 47 s
    Overall bit rate : 2 193 kb/s
    Encoded date : UTC 2019-10-14 20: 15: 00
    Writing application : mkvmerge v7.8.0 (\'River Man\') 32bit built on Apr 3 2015 12: 11: 22
    Writing library : libebml v1.3.1 + libmatroska v1.4.2
    Video
    ID : 1
    Format : AVC
    Format/Info : Advanced Video Codec
    Format profile : High@L4.1
    Format settings : CABAC/9 Ref Frames
    Format settings, CABAC : Yes
    Format settings, ReFrames : 9 frames
    Codec ID : V_MPEG4/ISO/AVC
    Duration : 47 min 47 s
    Bit rate : 2 000 kb/s
    Width : 1 024 pixels
    Height : 576 pixels
    Display aspect ratio : 16: 9
    Frame rate mode : Constant
    Frame rate : 25.000 FPS
    Color space : YUV
    Chroma subsampling : 4: 2: 0
    Bit depth : 8 bits
    Scan type : Progressive
    Bits/(Pixel*Frame) : 0.136
    Stream size : 669 MiB (89%)
    Writing library : x264 core 146 r2538 121396c
    Encoding settings : cabac=1/ref=9/deblock=1: -2: -1/analyse=0x3: 0x133/me=umh/subme=9/psy=1/psy_rd=1.00: 0.15/mixed_ref=1/me_range=32/chroma_me=1/trellis=2/8x8dct=1/cqm=0/deadzone=21, 11/fast_pskip=0/chroma_qp_offset=-3/threads=18/lookahead_threads=3/sliced_threads=0/nr=0/decimate=1/interlaced=0/bluray_compat=0/constrained_intra=0/bframes=9/b_pyramid=2/b_adapt=2/b_bias=0/direct=1/weightb=1/open_gop=0/weightp=2/keyint=250/keyint_min=25/scenecut=40/intra_refresh=0/rc=2pass/mbtree=0/bitrate=2000/ratetol=1.0/qcomp=0.60/qpmin=0/qpmax=69/qpstep=4/cplxblur=20.0/qblur=0.5/ip_ratio=1.40/pb_ratio=1.30/aq=2: 1.00
    Default : Yes
    Forced : No
    Color range : Limited
    Color primaries : BT.709
    Transfer characteristics : BT.709
    Matrix coefficients : BT.709
    Audio
    ID : 2
    Format : AC-3
    Format/Info : Audio Coding 3
    Commercial name : Dolby Digital
    Codec ID : A_AC3
    Duration : 47 min 47 s
    Bit rate mode : Constant
    Bit rate : 192 kb/s
    Channel(s) : 2 channels
    Channel layout : L R
    Sampling rate : 48.0 kHz
    Frame rate : 31.250 FPS (1536 SPF)
    Bit depth : 16 bits
    Compression mode : Lossy
    Stream size : 65.6 MiB (9%)
    Service kind : Complete Main
    Default : Yes
    Forced : No

    Скриншоты для ознакомления



    Все одноименные релизы в Клубе
    Время раздачи: 24/7 (до появления первых 3-5 скачавших)

    Онлайн видео Канцелярская крыса (2019) WEB



    Канцелярская крыса (2019) WEB-DLRip [H.264] (сезон 2, серии 1-20 из 20)
    Рейтинг →
     (голосов: 1, оценка 5/5, голосовать можно 1 раз )

    Другие торренты по теме:

  • Канцелярская крыса (2018) SATRip (серии 1-2 из 16) (обновляемая)
  • Канцелярская крыса (2018) SATRip [H.264] (серии 1-4 из 16) (обновляемая)
  • Канцелярская крыса (2018) WEB-DL [H.264 / 1080p-LQ] (серии 1-6 из 16) (обновляемая)
  • Канцелярская крыса (2018) WEBRip (сезон 1, серии 1-16 из 16)
  • Константин Соловьёв | Канцелярская крыса (2015) [FB2]
  • Канцелярская крыса (2019) SATRip [H.264] (сезон 2, серии 1-4 из 20) (обновляемая)
  • Канцелярская крыса (2019) WEB-DLRip [H.264 / 720p-LQ] (сезон 2, серии 1-10 из 20) (обновляемая)
  • Канцелярская крыса (2019) WEB-DLRip (сезон 2, серии 1-14 из 20) (обновляемая)


    • Комментарии (0):

      Информация

      Информация

        Посетители, находящиеся в группе Гости, не могут оставлять комментарии в данной новости.

        ↓ Меню




        ↓ Опрос

        Вы добавили сайт в закладки?
        Да
        Нет


        Популярное